Español (ES) | Coin Locker Monogatari | Black Book full movie free download

(R\'n\'B) [CD] Kehlani - SweetSexySavage (2017), FLAC (tracks+.cue), lossless 

Цитировать
Kehlani - SweetSexySavage
Жанр: R'n'B
Носитель: CD
Страна-производитель диска (релиза): US
Год издания: 2017
Издатель (лейбл): Atlantic / Tsunami Mob
Номер по каталогу: 556580-2
Аудиокодек: FLAC (*.flac)
Тип рипа: tracks+.cue
Битрейт аудио: lossless
Продолжительность: 01:05:07
Источник (релизер): вафли (elemental10)
Наличие сканов: нет
01. Intro
02. Keep On
03. Distraction
04. Piece Of Mind
05. Undercover
06. CRZY
07. Personal
08. Not Used To It
09. Everything Is Yours
10. Advice
11. Do U Dirty
12. Escape
13. Too Much
14. Get Like
15. In My Feelings
16. Hold Me By The Heart
17. Thank You
Bonus
18. I Wanna Be
19. Gangsta

Лог создания рипа

Exact Audio Copy V1.0 beta 4 from 7. December 2014
EAC extraction logfile from 23. February 2017, 13:24
Kehlani / SweetSexySavage
Used drive : PIONEER DVD-RW DVR-116D Adapter: 1 ID: 0
Read mode : SecureUtilize accurate stream : YesDefeat audio cache : YesMake use of C2 pointers : No
Read offset correction : 96Overread into Lead-In and Lead-Out : NoFill up missing offset samples with silence : YesDelete leading and trailing silent blocks : NoNull samples used in CRC calculations : YesUsed interface : Native Win32 interface for Win NT & 2000Gap handling : Appended to previous track
Used output format : User Defined EncoderSelected bitrate : 1024 kBit/sQuality : HighAdd ID3 tag : NoCommand line compressor : C:\Program Files (x86)\Exact Audio Copy\Flac\flac.exeAdditional command line options : -8 -V -T "ARTIST=%artist%" -T "TITLE=%title%" -T "ALBUM=%albumtitle%" -T "DATE=%year%" -T "TRACKNUMBER=%tracknr%" -T "GENRE=%genre%" -T "PERFORMER=%albuminterpret%" -T "COMPOSER=%composer%" %haslyrics%--tag-from-file=LYRICS="%lyricsfile%"%haslyrics% -T "ALBUMARTIST=%albumartist%" -T "DISCNUMBER=%cdnumber%" -T "TOTALDISCS=%totalcds%" -T "TOTALTRACKS=%numtracks%" -T "COMMENT=%comment%" %source% -o %dest%
TOC of the extracted CD
Track | Start | Length | Start sector | End sector --------------------------------------------------------- 1 | 0:00.00 | 0:59.62 | 0 | 4486 2 | 0:59.62 | 3:38.34 | 4487 | 20870 3 | 4:38.21 | 3:55.52 | 20871 | 38547 4 | 8:33.73 | 4:18.50 | 38548 | 57947 5 | 12:52.48 | 3:03.21 | 57948 | 71693 6 | 15:55.69 | 3:11.54 | 71694 | 86072 7 | 19:07.48 | 3:47.14 | 86073 | 103111 8 | 22:54.62 | 3:55.42 | 103112 | 120778 9 | 26:50.29 | 3:31.69 | 120779 | 136672 10 | 30:22.23 | 3:22.54 | 136673 | 151876 11 | 33:45.02 | 3:26.02 | 151877 | 167328 12 | 37:11.04 | 3:21.54 | 167329 | 182457 13 | 40:32.58 | 3:49.27 | 182458 | 199659 14 | 44:22.10 | 2:54.57 | 199660 | 212766 15 | 47:16.67 | 3:46.69 | 212767 | 229785 16 | 51:03.61 | 3:45.01 | 229786 | 246661 17 | 54:48.62 | 3:49.00 | 246662 | 263836 18 | 58:37.62 | 3:31.55 | 263837 | 279716 19 | 62:09.42 | 2:57.58 | 279717 | 293049
Track 1
Filename C:\new flac rips\Kehlani - 2017 - SweetSexySavage\01 Intro.wav
Pre-gap length 0:00:02.00
Peak level 43.4 % Extraction speed 2.8 X Track quality 100.0 % Test CRC F7E32C60 Copy CRC F7E32C60 Track not present in AccurateRip database Copy OK
Track 2
Filename C:\new flac rips\Kehlani - 2017 - SweetSexySavage\02 Keep On.wav
Peak level 98.9 % Extraction speed 3.6 X Track quality 99.9 % Test CRC 96AB09C9 Copy CRC 96AB09C9 Track not present in AccurateRip database Copy OK
Track 3
Filename C:\new flac rips\Kehlani - 2017 - SweetSexySavage\03 Distraction.wav
Peak level 98.4 % Extraction speed 4.0 X Track quality 99.9 % Test CRC C0C91283 Copy CRC C0C91283 Track not present in AccurateRip database Copy OK
Track 4
Filename C:\new flac rips\Kehlani - 2017 - SweetSexySavage\04 Piece Of Mind.wav
Peak level 98.9 % Extraction speed 5.0 X Track quality 100.0 % Test CRC 0B503A32 Copy CRC 0B503A32 Track not present in AccurateRip database Copy OK
Track 5
Filename C:\new flac rips\Kehlani - 2017 - SweetSexySavage\05 Undercover.wav
Peak level 98.9 % Extraction speed 4.4 X Track quality 99.9 % Test CRC 315C3FA1 Copy CRC 315C3FA1 Track not present in AccurateRip database Copy OK
Track 6
Filename C:\new flac rips\Kehlani - 2017 - SweetSexySavage\06 CRZY.wav
Peak level 98.4 % Extraction speed 5.4 X Track quality 100.0 % Test CRC 16A124E7 Copy CRC 16A124E7 Track not present in AccurateRip database Copy OK
Track 7
Filename C:\new flac rips\Kehlani - 2017 - SweetSexySavage\07 Personal.wav
Peak level 98.9 % Extraction speed 5.8 X Track quality 100.0 % Test CRC EEDB2A30 Copy CRC EEDB2A30 Track not present in AccurateRip database Copy OK
Track 8
Filename C:\new flac rips\Kehlani - 2017 - SweetSexySavage\08 Not Used To It.wav
Peak level 98.9 % Extraction speed 6.1 X Track quality 100.0 % Test CRC E8DEF353 Copy CRC E8DEF353 Track not present in AccurateRip database Copy OK
Track 9
Filename C:\new flac rips\Kehlani - 2017 - SweetSexySavage\09 Everything Is Yours.wav
Peak level 98.9 % Extraction speed 6.1 X Track quality 100.0 % Test CRC CA557147 Copy CRC CA557147 Track not present in AccurateRip database Copy OK
Track 10
Filename C:\new flac rips\Kehlani - 2017 - SweetSexySavage\10 Advice.wav
Peak level 98.9 % Extraction speed 6.3 X Track quality 100.0 % Test CRC 6B954815 Copy CRC 6B954815 Track not present in AccurateRip database Copy OK
Track 11
Filename C:\new flac rips\Kehlani - 2017 - SweetSexySavage\11 Do U Dirty.wav
Peak level 98.9 % Extraction speed 6.5 X Track quality 100.0 % Test CRC 29026083 Copy CRC 29026083 Track not present in AccurateRip database Copy OK
Track 12
Filename C:\new flac rips\Kehlani - 2017 - SweetSexySavage\12 Escape.wav
Peak level 98.9 % Extraction speed 6.4 X Track quality 100.0 % Test CRC E81ADE60 Copy CRC E81ADE60 Track not present in AccurateRip database Copy OK
Track 13
Filename C:\new flac rips\Kehlani - 2017 - SweetSexySavage\13 Too Much.wav
Peak level 98.9 % Extraction speed 6.8 X Track quality 100.0 % Test CRC D757FCA0 Copy CRC D757FCA0 Track not present in AccurateRip database Copy OK
Track 14
Filename C:\new flac rips\Kehlani - 2017 - SweetSexySavage\14 Get Like.wav
Peak level 98.9 % Extraction speed 6.6 X Track quality 100.0 % Test CRC BCA99E2F Copy CRC BCA99E2F Track not present in AccurateRip database Copy OK
Track 15
Filename C:\new flac rips\Kehlani - 2017 - SweetSexySavage\15 In My Feelings.wav
Peak level 99.9 % Extraction speed 6.0 X Track quality 100.0 % Test CRC 83689205 Copy CRC 83689205 Track not present in AccurateRip database Copy OK
Track 16
Filename C:\new flac rips\Kehlani - 2017 - SweetSexySavage\16 Hold Me By The Heart.wav
Peak level 98.9 % Extraction speed 6.9 X Track quality 100.0 % Test CRC 7CEA4D17 Copy CRC 7CEA4D17 Track not present in AccurateRip database Copy OK
Track 17
Filename C:\new flac rips\Kehlani - 2017 - SweetSexySavage\17 Thank You.wav
Peak level 98.9 % Extraction speed 6.9 X Track quality 100.0 % Test CRC 6DDE8B81 Copy CRC 6DDE8B81 Track not present in AccurateRip database Copy OK
Track 18
Filename C:\new flac rips\Kehlani - 2017 - SweetSexySavage\18 I Wanna Be.wav
Peak level 98.4 % Extraction speed 6.3 X Track quality 100.0 % Test CRC FF731748 Copy CRC FF731748 Track not present in AccurateRip database Copy OK
Track 19
Filename C:\new flac rips\Kehlani - 2017 - SweetSexySavage\19 Gangsta.wav
Peak level 98.4 % Extraction speed 6.5 X Track quality 100.0 % Test CRC 444885D0 Copy CRC 444885D0 Track not present in AccurateRip database Copy OK
None of the tracks are present in the AccurateRip database
No errors occurred
End of status report
---- CUETools DB Plugin V2.1.4
[CTDB TOCID: rvTTbpIFFRZGolIZMQRRz4W_K.U-] foundSubmit result: rvTTbpIFFRZGolIZMQRRz4W_K.U- has been confirmedTrack | CTDB Status 1 | (1/8) Accurately ripped 2 | (1/8) Accurately ripped 3 | (1/8) Accurately ripped 4 | (1/8) Accurately ripped 5 | (1/8) Accurately ripped 6 | (1/8) Accurately ripped 7 | (1/8) Accurately ripped 8 | (1/8) Accurately ripped 9 | (1/8) Accurately ripped 10 | (1/8) Accurately ripped 11 | (1/8) Accurately ripped 12 | (1/8) Accurately ripped 13 | (1/8) Accurately ripped 14 | (1/8) Accurately ripped 15 | (1/8) Accurately ripped 16 | (1/8) Accurately ripped 17 | (1/8) Accurately ripped 18 | (1/8) Accurately ripped 19 | (1/8) Accurately ripped
==== Log checksum 984DF0F5AEFFC30A4BA98B21E81C3FAD6F4ECEF5BF2F8B2F77B9BF3B215D5DE9 ====

Содержание индексной карты (.CUE)

REM GENRE R&BREM DATE 2017REM DISCID 040F4313REM COMMENT "ExactAudioCopy v1.0b4"PERFORMER "Kehlani"TITLE "SweetSexySavage"FILE "01 Intro.wav" WAVE  TRACK 01 AUDIO    TITLE "Intro"    PERFORMER "Kehlani"    FLAGS DCP    INDEX 01 00:00:00FILE "02 Keep On.wav" WAVE  TRACK 02 AUDIO    TITLE "Keep On"    PERFORMER "Kehlani"    FLAGS DCP    INDEX 01 00:00:00FILE "03 Distraction.wav" WAVE  TRACK 03 AUDIO    TITLE "Distraction"    PERFORMER "Kehlani"    FLAGS DCP    INDEX 01 00:00:00FILE "04 Piece Of Mind.wav" WAVE  TRACK 04 AUDIO    TITLE "Piece Of Mind"    PERFORMER "Kehlani"    FLAGS DCP    INDEX 01 00:00:00FILE "05 Undercover.wav" WAVE  TRACK 05 AUDIO    TITLE "Undercover"    PERFORMER "Kehlani"    FLAGS DCP    INDEX 01 00:00:00FILE "06 CRZY.wav" WAVE  TRACK 06 AUDIO    TITLE "CRZY"    PERFORMER "Kehlani"    FLAGS DCP    INDEX 01 00:00:00FILE "07 Personal.wav" WAVE  TRACK 07 AUDIO    TITLE "Personal"    PERFORMER "Kehlani"    FLAGS DCP    INDEX 01 00:00:00FILE "08 Not Used To It.wav" WAVE  TRACK 08 AUDIO    TITLE "Not Used To It"    PERFORMER "Kehlani"    FLAGS DCP    INDEX 01 00:00:00FILE "09 Everything Is Yours.wav" WAVE  TRACK 09 AUDIO    TITLE "Everything Is Yours"    PERFORMER "Kehlani"    FLAGS DCP    INDEX 01 00:00:00FILE "10 Advice.wav" WAVE  TRACK 10 AUDIO    TITLE "Advice"    PERFORMER "Kehlani"    FLAGS DCP    INDEX 01 00:00:00FILE "11 Do U Dirty.wav" WAVE  TRACK 11 AUDIO    TITLE "Do U Dirty"    PERFORMER "Kehlani"    FLAGS DCP    INDEX 01 00:00:00FILE "12 Escape.wav" WAVE  TRACK 12 AUDIO    TITLE "Escape"    PERFORMER "Kehlani"    FLAGS DCP    INDEX 01 00:00:00FILE "13 Too Much.wav" WAVE  TRACK 13 AUDIO    TITLE "Too Much"    PERFORMER "Kehlani"    FLAGS DCP    INDEX 01 00:00:00FILE "14 Get Like.wav" WAVE  TRACK 14 AUDIO    TITLE "Get Like"    PERFORMER "Kehlani"    FLAGS DCP    INDEX 01 00:00:00FILE "15 In My Feelings.wav" WAVE  TRACK 15 AUDIO    TITLE "In My Feelings"    PERFORMER "Kehlani"    FLAGS DCP    INDEX 01 00:00:00FILE "16 Hold Me By The Heart.wav" WAVE  TRACK 16 AUDIO    TITLE "Hold Me By The Heart"    PERFORMER "Kehlani"    FLAGS DCP    INDEX 01 00:00:00FILE "17 Thank You.wav" WAVE  TRACK 17 AUDIO    TITLE "Thank You"    PERFORMER "Kehlani"    FLAGS DCP    INDEX 01 00:00:00FILE "18 I Wanna Be.wav" WAVE  TRACK 18 AUDIO    TITLE "I Wanna Be"    PERFORMER "Kehlani"    FLAGS DCP    INDEX 01 00:00:00FILE "19 Gangsta.wav" WAVE  TRACK 19 AUDIO    TITLE "Gangsta"    PERFORMER "Kehlani"    FLAGS DCP    INDEX 01 00:00:00

Лог проверки качества

AUDIOCHECKER v2.0 beta (build 457) - by Dester - [email protected]~~~~~~~~~~~~~~~~~~~~~~~~~~~~~~~~~~-=== НЕ РЕДАКТИРУЙТЕ ЭТОТ ФАЙЛ! ===-
Путь: ...\Kehlani - SweetSexySavage (2017)
01 -=- 01 Intro.flac -=- CDDA (49%)02 -=- 02 Keep On.flac -=- CDDA (100%)03 -=- 03 Distraction.flac -=- CDDA (100%)04 -=- 04 Piece Of Mind.flac -=- CDDA (100%)05 -=- 05 Undercover.flac -=- MPEG (79%)06 -=- 06 CRZY.flac -=- CDDA (100%)07 -=- 07 Personal.flac -=- CDDA (99%)08 -=- 08 Not Used To It.flac -=- CDDA (100%)09 -=- 09 Everything Is Yours.flac -=- CDDA (100%)10 -=- 10 Advice.flac -=- CDDA (100%)11 -=- 11 Do U Dirty.flac -=- CDDA (100%)12 -=- 12 Escape.flac -=- CDDA (100%)13 -=- 13 Too Much.flac -=- CDDA (100%)14 -=- 14 Get Like.flac -=- CDDA (100%)15 -=- 15 In My Feelings.flac -=- CDDA (100%)16 -=- 16 Hold Me By The Heart.flac -=- CDDA (100%)17 -=- 17 Thank You.flac -=- CDDA (100%)18 -=- 18 I Wanna Be.flac -=- CDDA (100%)19 -=- 19 Gangsta.flac -=- CDDA (100%)
Сводка 93,11% CDDA
83319076
Вы не можете начинать темы
Вы не можете отвечать на сообщения
Вы не можете редактировать свои сообщения
Вы не можете удалять свои сообщения
Вы не можете голосовать в опросах
Вы не можете прикреплять файлы к сообщениям
Вы можете скачивать файлы