Концерт | In geheimer Mission | ぶーち

(soul, r&b, funk) Des\'ree - Mind Adventures [471263 2 (02-471263-10), UK] - 1992, FLAC (image+.cue), lossless 

Цитировать
Des'ree / Mind Adventures [471263 2 (02-471263-10), UK]
Жанр: soul, r&b, funk
Страна-производитель диска: UK
Год издания диска: 1992
Издатель (лейбл): Sony Music Entertainment (UK)
Номер по каталогу: 471263 2 (02-471263-10)
Страна: UK
Аудиокодек: FLAC (*.flac)
Тип рипа: image+.cue
Битрейт аудио: lossless
Продолжительность: 47:54
Источник (релизер): isurrendertoyou
Наличие сканов в содержимом раздачи: нет
Треклист:
01. Average Man
02. Feel So High
03. Sun Of '79
04. Why Should I Love You
05. Stand On My Own Ground
06. Competitive World
07. Mind Adventures
08. Laughter
09. Save Me
10. Momma Please Don't Cry

Лог создания рипа

Exact Audio Copy V0.99 prebeta 5 from 4. May 2009
Отчёт EAC об извлечении, выполненном 27. февраля 2012, 3:01
Des'ree / Mind Adventures
Дисковод: TSSTcorpCDDVDW SN-S083F Adapter: 1 ID: 0
Режим чтения : ДостоверностьИспользование точного потока : ДаОтключение кэша аудио : ДаИспользование указателей C2 : Нет
Коррекция смещения при чтении : 6Способность читать области Lead-in и Lead-out : НетЗаполнение пропущенных сэмплов тишиной : ДаУдаление блоков с тишиной в начале и конце : НетПри вычислениях CRC использовались нулевые сэмплы : ДаИнтерфейс : Встроенный Win32-интерфейс для Win NT/2000
Выходной формат : Внутренние WAV-операцииФормат сэмплов : 44.100 Гц; 16 бит; стерео
TOC извлечённого CD
Трек | Старт | Длительность | Начальный сектор | Конечный сектор --------------------------------------------------------------------- 1 | 0:00.00 | 5:08.02 | 0 | 23101 2 | 5:08.02 | 3:55.25 | 23102 | 40751 3 | 9:03.27 | 5:14.68 | 40752 | 64369 4 | 14:18.20 | 4:17.20 | 64370 | 83664 5 | 18:35.40 | 4:09.42 | 83665 | 102381 6 | 22:45.07 | 5:32.58 | 102382 | 127339 7 | 28:17.65 | 4:47.07 | 127340 | 148871 8 | 33:04.72 | 4:49.33 | 148872 | 170579 9 | 37:54.30 | 5:31.17 | 170580 | 195421 10 | 43:25.47 | 4:28.35 | 195422 | 215556
Характеристики диапазона извлечения и сообщения об ошибках
Выбранный диапазон
Имя файла D:\Des'ree - Mind Adventures.wav
Пиковый уровень 94.7 % Качество диапазона 100.0 % CRC копии 341F0477 Копирование... OK
Ошибок не произошло
Конец отчёта

AccurateRip

AccurateRip verification results: Des`ree - Mind Adventures
Track [ CRC ] Status 01 [4df9e4f2] (61/97) Accurately ripped as in pressing(s) #1 02 [29cdef9e] (62/98) Accurately ripped as in pressing(s) #1 03 [8cfd4fd3] (61/96) Accurately ripped as in pressing(s) #1 04 [89744ebd] (60/96) Accurately ripped as in pressing(s) #1 05 [6c2fa813] (61/97) Accurately ripped as in pressing(s) #1 06 [38b8b255] (61/96) Accurately ripped as in pressing(s) #1 07 [a49eba5d] (59/96) Accurately ripped as in pressing(s) #1 08 [0b00d74e] (61/97) Accurately ripped as in pressing(s) #1 09 [775c4fa6] (61/97) Accurately ripped as in pressing(s) #1 10 [c3d1bd70] (57/91) Accurately ripped as in pressing(s) #1Offseted by -29: 01 [2d1eff58] (02/97) Accurately ripped as in pressing(s) #5 02 [049693df] (02/98) Accurately ripped as in pressing(s) #5 03 [eb973695] (02/96) Accurately ripped as in pressing(s) #5 04 [d387846a] (02/96) Accurately ripped as in pressing(s) #5 05 [731a4417] (02/97) Accurately ripped as in pressing(s) #5 06 [e2e30b93] (02/96) Accurately ripped as in pressing(s) #5 07 [2b060c42] (02/96) Accurately ripped as in pressing(s) #5 08 [6610bdc9] (02/97) Accurately ripped as in pressing(s) #5 09 [860fbc10] (02/97) Accurately ripped as in pressing(s) #5 10 [10ada268] (02/91) Accurately ripped as in pressing(s) #5Offseted by 1036: 01 [6ad19ada] (19/97) Accurately ripped as in pressing(s) #2 02 [d6aa2e2b] (19/98) Accurately ripped as in pressing(s) #2 03 [ceafc25c] (18/96) Accurately ripped as in pressing(s) #2 04 [322f2deb] (19/96) Accurately ripped as in pressing(s) #2 05 [bac7dd97] (19/97) Accurately ripped as in pressing(s) #2 06 [7318ae90] (18/96) Accurately ripped as in pressing(s) #2 07 [148f8db9] (20/96) Accurately ripped as in pressing(s) #2 08 [cb33a173] (19/97) Accurately ripped as in pressing(s) #2 09 [61b97cd7] (19/97) Accurately ripped as in pressing(s) #2 10 [cb3d1070] (17/91) Accurately ripped as in pressing(s) #2
Track [ CRC32 ] [W/O NULL] 01 [46D07FA5] [F777D9DC] 02 [10F48B22] [E6C22C3D] 03 [E1DF8A1D] [3529E09F] 04 [7F65F7F5] [B99F38F2] 05 [9357E8A9] [A52F27A3] 06 [1019EA14] [AD4DCCFC] 07 [34BC361D] [0428364F] 08 [5FEB5631] [5A5453C7] 09 [77FB253A] [9954CD13] 10 [34D55B1C] [11E3C0AE]
С РАЗДАЧИ УШЁЛ
Вы не можете начинать темы
Вы не можете отвечать на сообщения
Вы не можете редактировать свои сообщения
Вы не можете удалять свои сообщения
Вы не можете голосовать в опросах
Вы не можете прикреплять файлы к сообщениям
Вы можете скачивать файлы