Vishwaroopam 2 | Josh Roessler | 9-1-1 Season1 EP1 – EP10 [จบ] พากย์ไทย

(R\'n\'B, Soul, Swing) [CDM] Yasmin - Let Me Take Over - 1993, FLAC (tracks+.cue), lossless 

Цитировать
Yasmin / Let Me Take Over
Жанр: R'n'B, Soul, Swing
Носитель: CDM
Год издания: 1993
Издатель (лейбл): Soulpower Productions
Номер по каталогу: 560182
Аудиокодек: FLAC (*.flac)
Тип рипа: tracks+.cue
Битрейт аудио: lossless
Продолжительность: 19:43
Источник (релизер): собственный рип
Наличие сканов в содержимом раздачи: да
Треклист:
01. Yasmin - Let Me Take Over (Radio Version)) [4:15]
02. Yasmin - Let Me Take Over (Club Version) [6:34]
03. Yasmin - The Moon (Original Version) [4:24]
04. Yasmin - Let Me Take Over (Instrumental Version) [4:35]

Лог создания рипа

Exact Audio Copy V1.3 from 2. September 2016
EAC extraction logfile from 28. November 2017, 21:13
Yasmin / Let Me Take Over
Used drive : ASUS SDRW-08D2S-U Adapter: 9 ID: 1
Read mode : SecureUtilize accurate stream : YesDefeat audio cache : YesMake use of C2 pointers : No
Read offset correction : 6Overread into Lead-In and Lead-Out : NoFill up missing offset samples with silence : YesDelete leading and trailing silent blocks : NoNull samples used in CRC calculations : YesUsed interface : Installed external ASPI interfaceGap handling : Appended to previous track
Used output format : User Defined EncoderSelected bitrate : 128 kBit/sQuality : HighAdd ID3 tag : NoCommand line compressor : D:\flac-1.3.2-win\win64\flac.exeAdditional command line options : -8 -V -T "ARTIST=%artist%" -T "TITLE=%title%" -T "ALBUM=%albumtitle%" -T "DATE=%year%" -T "TRACKNUMBER=%tracknr%" -T "GENRE=%genre%" -T "COMMENT=ripped by Andy aka yetiisyou" %source%
TOC of the extracted CD
Track | Start | Length | Start sector | End sector --------------------------------------------------------- 1 | 0:00.02 | 4:14.48 | 2 | 19099 2 | 4:14.50 | 6:34.35 | 19100 | 48684 3 | 10:49.10 | 4:23.40 | 48685 | 68449 4 | 15:12.50 | 4:34.50 | 68450 | 89049
Track 1
Filename E:\!Ripped by Andy aka yetiisyou\Yasmin - Let Me Take Over [5620182] [1993]\01. Yasmin - Let Me Take Over (Radio Version)).wav
Pre-gap length 0:00:02.02
Peak level 100.0 % Extraction speed 1.0 X Track quality 99.9 % Test CRC B9F45E75 Copy CRC B9F45E75 Accurately ripped (confidence 1) [DA31C91D] (AR v1) Copy OK
Track 2
Filename E:\!Ripped by Andy aka yetiisyou\Yasmin - Let Me Take Over [5620182] [1993]\02. Yasmin - Let Me Take Over (Club Version).wav
Pre-gap length 0:00:01.65
Peak level 100.0 % Extraction speed 1.3 X Track quality 100.0 % Test CRC D97B277B Copy CRC D97B277B Accurately ripped (confidence 1) [82784AB5] (AR v1) Copy OK
Track 3
Filename E:\!Ripped by Andy aka yetiisyou\Yasmin - Let Me Take Over [5620182] [1993]\03. Yasmin - The Moon (Original Version).wav
Pre-gap length 0:00:02.43
Peak level 100.0 % Extraction speed 1.4 X Track quality 100.0 % Test CRC 3AE784DE Copy CRC 3AE784DE Accurately ripped (confidence 1) [3BC9F8ED] (AR v1) Copy OK
Track 4
Filename E:\!Ripped by Andy aka yetiisyou\Yasmin - Let Me Take Over [5620182] [1993]\04. Yasmin - Let Me Take Over (Instrumental Version).wav
Pre-gap length 0:00:04.13
Peak level 100.0 % Extraction speed 1.6 X Track quality 100.0 % Test CRC CD22C81B Copy CRC CD22C81B Accurately ripped (confidence 1) [BB2A2BEB] (AR v1) Copy OK
All tracks accurately ripped
No errors occurred
End of status report
---- CUETools DB Plugin V2.1.6
[CTDB TOCID: 0L4ca19DH7nvW6UKTbgxYRMSBEo-] disk not present in databaseSubmit result: 0L4ca19DH7nvW6UKTbgxYRMSBEo- has been uploaded
==== Log checksum 363A467847CDEF13879B8AC537544AE0F028C0A8A5B052771F82C0D8AB8BAF36 ====

Содержание индексной карты (.CUE)

REM DATE 1993REM DISCID 2904A304REM COMMENT "ExactAudioCopy v1.3"PERFORMER "Yasmin"TITLE "Let Me Take Over"REM COMPOSER ""FILE "01. Yasmin - Let Me Take Over (Radio Version)).wav" WAVE  TRACK 01 AUDIO    TITLE "Let Me Take Over (Radio Version))"    PERFORMER "Yasmin"    REM COMPOSER ""    PREGAP 00:00:02    INDEX 01 00:00:00  TRACK 02 AUDIO    TITLE "Let Me Take Over (Club Version)"    PERFORMER "Yasmin"    REM COMPOSER ""    INDEX 00 04:12:58FILE "02. Yasmin - Let Me Take Over (Club Version).wav" WAVE    INDEX 01 00:00:00  TRACK 03 AUDIO    TITLE "The Moon (Original Version)"    PERFORMER "Yasmin"    REM COMPOSER ""    INDEX 00 06:31:67FILE "03. Yasmin - The Moon (Original Version).wav" WAVE    INDEX 01 00:00:00  TRACK 04 AUDIO    TITLE "Let Me Take Over (Instrumental Version)"    PERFORMER "Yasmin"    REM COMPOSER ""    INDEX 00 04:19:27FILE "04. Yasmin - Let Me Take Over (Instrumental Version).wav" WAVE    INDEX 01 00:00:00
Вы не можете начинать темы
Вы не можете отвечать на сообщения
Вы не можете редактировать свои сообщения
Вы не можете удалять свои сообщения
Вы не можете голосовать в опросах
Вы не можете прикреплять файлы к сообщениям
Вы можете скачивать файлы