Наши новости | Martin McCann | Luis Fonsi Demi Lovato - Echame La Culpa (Single) (2017) (Mp3 320kbps) [Hunter]

(R&B / Pop / Soul) [CD] Toni Braxton - Sex & Cigarettes (Target Exclusive Deluxe Edition) - 2018, FLAC (tracks+.cue), lossless 

Цитировать
Toni Braxton / Sex & Cigarettes (Target Exclusive Deluxe Edition)
Жанр: R&B / Pop / Soul
Носитель: CD
Страна-производитель диска (релиза): USA
Год издания: 2018
Издатель (лейбл): Def Jam Recordings
Номер по каталогу: B0028113-02
Страна исполнителя (группы): USA
Аудиокодек: FLAC (*.flac)
Тип рипа: tracks+.cue
Битрейт аудио: lossless
Продолжительность: 00:41:45
Источник (релизер): Red (zerorules)
Наличие сканов в содержимом раздачи: нет

Треклист:
01. Deadwood (03:59)
02. Sex & Cigarettes (03:47)
03. Long As I Live (04:51)
04. FOH (02:47)
05. Sorry (03:56)
06. My Heart (Feat. Colbie Caillat) (04:09)
07. Coping (03:54)
08. Missin’ (03:30)
09. Forgiven (From The Movie The Forgiven) (Bonus Track) (04:01)
10. Coping (Disco Killerz Remix) (Bonus Track) (03:31)
11. Coping (Eden Prince Remix) (Bonus Track) (03:18)

Лог создания рипа

Exact Audio Copy V1.3 from 2. September 2016
EAC extraction logfile from 14. April 2018, 18:46
Toni Braxton / Sex & Cigarettes
Used drive : HL-DT-STDVDRAM GH24NSD1 Adapter: 1 ID: 0
Read mode : SecureUtilize accurate stream : YesDefeat audio cache : YesMake use of C2 pointers : No
Read offset correction : 6Overread into Lead-In and Lead-Out : NoFill up missing offset samples with silence : YesDelete leading and trailing silent blocks : NoNull samples used in CRC calculations : YesUsed interface : Native Win32 interface for Win NT & 2000Gap handling : Appended to previous track
Used output format : User Defined EncoderSelected bitrate : 1024 kBit/sQuality : HighAdd ID3 tag : NoCommand line compressor : C:\Program Files (x86)\Exact Audio Copy\Flac\flac.exeAdditional command line options : -8 -e -p -V -T "ARTIST=%artist%" -T "TITLE=%title%" -T "ALBUM=%albumtitle%" -T "DATE=%year%" -T "TRACKNUMBER=%tracknr%" -T "GENRE=%genre%" -T "PERFORMER=%albuminterpret%" -T "COMPOSER=%composer%" %haslyrics%--tag-from-file=LYRICS="%lyricsfile%"%haslyrics% -T "ALBUMARTIST=%albumartist%" -T "DISCNUMBER=%cdnumber%" -T "TOTALDISCS=%totalcds%" -T "TOTALTRACKS=%numtracks%" -T "COMMENT=%comment%" %source% -o %dest%
TOC of the extracted CD
Track | Start | Length | Start sector | End sector --------------------------------------------------------- 1 | 0:00.00 | 3:59.34 | 0 | 17958 2 | 3:59.34 | 3:46.61 | 17959 | 34969 3 | 7:46.20 | 4:50.68 | 34970 | 56787 4 | 12:37.13 | 2:47.32 | 56788 | 69344 5 | 15:24.45 | 3:56.00 | 69345 | 87044 6 | 19:20.45 | 4:08.64 | 87045 | 105708 7 | 23:29.34 | 3:54.17 | 105709 | 123275 8 | 27:23.51 | 3:30.22 | 123276 | 139047 9 | 30:53.73 | 4:01.29 | 139048 | 157151 10 | 34:55.27 | 3:30.52 | 157152 | 172953 11 | 38:26.04 | 3:18.30 | 172954 | 187833
Track 1
Filename C:\DiskD\Extraction\01 - Deadwood.wav
Pre-gap length 0:00:02.00
Peak level 95.1 % Extraction speed 4.7 X Track quality 100.0 % Test CRC F15AF8B2 Copy CRC F15AF8B2 Track not present in AccurateRip database Copy OK
Track 2
Filename C:\DiskD\Extraction\02 - Sex & Cigarettes.wav
Peak level 95.1 % Extraction speed 5.1 X Track quality 100.0 % Test CRC 115C3EF8 Copy CRC 115C3EF8 Track not present in AccurateRip database Copy OK
Track 3
Filename C:\DiskD\Extraction\03 - Long As I Live.wav
Peak level 96.1 % Extraction speed 5.7 X Track quality 100.0 % Test CRC F42B02B1 Copy CRC F42B02B1 Track not present in AccurateRip database Copy OK
Track 4
Filename C:\DiskD\Extraction\04 - FOH.wav
Peak level 95.1 % Extraction speed 5.5 X Track quality 100.0 % Test CRC 093869C5 Copy CRC 093869C5 Track not present in AccurateRip database Copy OK
Track 5
Filename C:\DiskD\Extraction\05 - Sorry.wav
Peak level 95.1 % Extraction speed 6.1 X Track quality 100.0 % Test CRC 7E59B167 Copy CRC 7E59B167 Track not present in AccurateRip database Copy OK
Track 6
Filename C:\DiskD\Extraction\06 - My Heart (feat. Colbie Caillat).wav
Peak level 95.1 % Extraction speed 6.4 X Track quality 100.0 % Test CRC 15938755 Copy CRC 15938755 Track not present in AccurateRip database Copy OK
Track 7
Filename C:\DiskD\Extraction\07 - Coping.wav
Peak level 95.0 % Extraction speed 6.7 X Track quality 100.0 % Test CRC 19370123 Copy CRC 19370123 Track not present in AccurateRip database Copy OK
Track 8
Filename C:\DiskD\Extraction\08 - Missin'.wav
Peak level 95.1 % Extraction speed 6.9 X Track quality 100.0 % Test CRC E3BA0137 Copy CRC E3BA0137 Track not present in AccurateRip database Copy OK
Track 9
Filename C:\DiskD\Extraction\09 - Forgiven.wav
Peak level 95.1 % Extraction speed 7.1 X Track quality 100.0 % Test CRC AB331056 Copy CRC AB331056 Track not present in AccurateRip database Copy OK
Track 10
Filename C:\DiskD\Extraction\10 - Coping (Disco Killerz Remix).wav
Peak level 77.3 % Extraction speed 7.3 X Track quality 100.0 % Test CRC 1580E1DE Copy CRC 1580E1DE Track not present in AccurateRip database Copy OK
Track 11
Filename C:\DiskD\Extraction\11 - Coping (Eden Prince Remix).wav
Peak level 74.6 % Extraction speed 7.4 X Track quality 100.0 % Test CRC 25FB853A Copy CRC 25FB853A Track not present in AccurateRip database Copy OK
None of the tracks are present in the AccurateRip database
No errors occurred
End of status report
---- CUETools DB Plugin V2.1.6
[CTDB TOCID: QiSQP3MuXEO75JB4nHEiKxnmMTI-] foundSubmit result: QiSQP3MuXEO75JB4nHEiKxnmMTI- has been confirmedTrack | CTDB Status 1 | (6/6) Accurately ripped 2 | (6/6) Accurately ripped 3 | (6/6) Accurately ripped 4 | (6/6) Accurately ripped 5 | (6/6) Accurately ripped 6 | (6/6) Accurately ripped 7 | (6/6) Accurately ripped 8 | (6/6) Accurately ripped 9 | (6/6) Accurately ripped 10 | (6/6) Accurately ripped 11 | (6/6) Accurately ripped
==== Log checksum C5C26E43D8BEC4FAE55FAD483D86735316BE4CD4D97512C53DB611D1F506ED98 ====

Содержание индексной карты (.CUE)

REM GENRE R&BREM DATE 2018REM DISCID 9409C80BREM COMMENT "ExactAudioCopy v1.3"PERFORMER "Toni Braxton"TITLE "Sex & Cigarettes"REM COMPOSER ""FILE "01 - Deadwood.wav" WAVE  TRACK 01 AUDIO    TITLE "Deadwood"    PERFORMER "Toni Braxton"    REM COMPOSER ""    INDEX 01 00:00:00FILE "02 - Sex & Cigarettes.wav" WAVE  TRACK 02 AUDIO    TITLE "Sex & Cigarettes"    PERFORMER "Toni Braxton"    REM COMPOSER ""    INDEX 01 00:00:00FILE "03 - Long As I Live.wav" WAVE  TRACK 03 AUDIO    TITLE "Long As I Live"    PERFORMER "Toni Braxton"    REM COMPOSER ""    INDEX 01 00:00:00FILE "04 - FOH.wav" WAVE  TRACK 04 AUDIO    TITLE "FOH"    PERFORMER "Toni Braxton"    REM COMPOSER ""    INDEX 01 00:00:00FILE "05 - Sorry.wav" WAVE  TRACK 05 AUDIO    TITLE "Sorry"    PERFORMER "Toni Braxton"    REM COMPOSER ""    INDEX 01 00:00:00FILE "06 - My Heart (feat. Colbie Caillat).wav" WAVE  TRACK 06 AUDIO    TITLE "My Heart (feat. Colbie Caillat)"    PERFORMER "Toni Braxton"    REM COMPOSER ""    INDEX 01 00:00:00FILE "07 - Coping.wav" WAVE  TRACK 07 AUDIO    TITLE "Coping"    PERFORMER "Toni Braxton"    REM COMPOSER ""    INDEX 01 00:00:00FILE "08 - Missin'.wav" WAVE  TRACK 08 AUDIO    TITLE "Missin'"    PERFORMER "Toni Braxton"    REM COMPOSER ""    INDEX 01 00:00:00FILE "09 - Forgiven.wav" WAVE  TRACK 09 AUDIO    TITLE "Forgiven"    PERFORMER "Toni Braxton"    REM COMPOSER ""    INDEX 01 00:00:00FILE "10 - Coping (Disco Killerz Remix).wav" WAVE  TRACK 10 AUDIO    TITLE "Coping (Disco Killerz Remix)"    PERFORMER "Toni Braxton"    REM COMPOSER ""    INDEX 01 00:00:00FILE "11 - Coping (Eden Prince Remix).wav" WAVE  TRACK 11 AUDIO    TITLE "Coping (Eden Prince Remix)"    PERFORMER "Toni Braxton"    REM COMPOSER ""    INDEX 01 00:00:00

Лог проверки качества

-----------------------
DON'T MODIFY THIS FILE
-----------------------
PERFORMER: auCDtect Task Manager, ver. 1.6.0 RC1 build 1.6.0.1Copyright (c) 2008-2010 y-soft. All rights reservedhttp://y-soft.org
ANALYZER: auCDtect: CD records authenticity detector, version 0.8.2Copyright (c) 2004 Oleg Berngardt. All rights reserved.Copyright (c) 2004 Alexander Djourik. All rights reserved.
FILE: 11 - Coping (Eden Prince Remix).flac Size: 23731492 Hash: 1C63448DA0C64B68E00A41851DD4BAAC Accuracy: -m0 Conclusion: CDDA 99% Signature: 1724EDD2E6E1E3B30C7F43A6FB2671CC418AAA94FILE: 10 - Coping (Disco Killerz Remix).flac Size: 26939077 Hash: EFEB612E0197B9399659AD2646DAAC09 Accuracy: -m0 Conclusion: CDDA 100% Signature: 348549EA9241ABD56619F9358283957B90FDE9FCFILE: 09 - Forgiven.flac Size: 23529899 Hash: EC614A0781EE3FAA3364999C82CB461A Accuracy: -m0 Conclusion: CDDA 100% Signature: 021A41564C8348294C0D6574506B5F7B64FDDC9CFILE: 08 - Missin'.flac Size: 24766156 Hash: CAAAB122F90D31BF5343039DD7428B97 Accuracy: -m0 Conclusion: CDDA 100% Signature: C23664585DBEDE08E1353777460F850BB0F28492FILE: 07 - Coping.flac Size: 26142296 Hash: 01E4923E6E901718D8AC3C7B0E6464FD Accuracy: -m0 Conclusion: CDDA 100% Signature: 94D3694E54B2AD30FFB760CD25C0AAA5ABFB46F1FILE: 06 - My Heart (feat. Colbie Caillat).flac Size: 26966473 Hash: 88A7F71872B42E398089908A0ABBE29C Accuracy: -m0 Conclusion: CDDA 100% Signature: E7CEEAB77E7437A7DCDE3DA010585232F36637C0FILE: 05 - Sorry.flac Size: 29742527 Hash: A0B5BD11D7C25AFA986D1D5586FE7D43 Accuracy: -m0 Conclusion: CDDA 100% Signature: 611511643EF580D791CCA79B152FF002CC6B133DFILE: 04 - FOH.flac Size: 17086597 Hash: 03557F54FCF78B1471422898E50A3D5B Accuracy: -m0 Conclusion: CDDA 99% Signature: 9A872F6065CF8D1B28BDEAEC97E1ADAE709281D9FILE: 03 - Long As I Live.flac Size: 34459711 Hash: 8C617F4D7F48CD73E8DC1DE3095F237A Accuracy: -m0 Conclusion: CDDA 100% Signature: 0A84370B18EC24B8508F1CCFCE2E4F4FDE586ADAFILE: 02 - Sex & Cigarettes.flac Size: 23099838 Hash: 05A4771ADF996A033466397199F4752B Accuracy: -m0 Conclusion: CDDA 100% Signature: C1740B4979CE5A56232427E0A9218BC277ABD75BFILE: 01 - Deadwood.flac Size: 30575854 Hash: C2D1EF3CBB2C1EEFBD15E2D60195EA83 Accuracy: -m0 Conclusion: CDDA 100% Signature: E206A406B9E23BC2A5B32EC0BFC70B3AB9FC0195
Вы не можете начинать темы
Вы не можете отвечать на сообщения
Вы не можете редактировать свои сообщения
Вы не можете удалять свои сообщения
Вы не можете голосовать в опросах
Вы не можете прикреплять файлы к сообщениям
Вы можете скачивать файлы