Robert Taylor | Шаблоны для Adobe Photoshop - Интерьер и картины. Part2 [2880х1800 - 4000х2250] [12шт.] (2018) PSD, JPEG | Chapter 93 : Sky High Price Elixir's

In War and Peace: Harmony Through Music (Joyce DiDonato, Il Pomo d\'Oro, Maxim Emelyanychev/Максим Емельянычев) [2018, Classical, BDRip 720p] 

Цитировать
In War and Peace: Harmony Through Music
Год выпуска: 2018
Лейбл: Erato
Жанр: Classical
Продолжительность: 01:40:50
Язык: English
Перевод: нет
Субтитры: нет
Режиссер: Ralf Pleger
Дирижер : Maxim Emelyanychev / Максим Емельянычев
Исполнители: Joyce DiDonato, mezzo-soprano; Anna Fusek, flute solo; Maxim Emelyanychev, harpsichord; Il Pomo d'Oro, orchestra; Manuel Palazzo, choreography, dancer
Треклист:
WAR
Handel: Scenes of horror (from Jephtha)
Leo: Prendi quel ferro, o barbaro! (from Andromaca)
Cavalieri: Rappresentazione di Anima e di Corpo: Sinfonia
Purcell: Chacony in G minor
Purcell: Thy hand, Belinda … When I am laid in earth (from Dido & Aeneas)
Handel: Pensieri, voi mi tormentate! (from Agrippina)
Gesualdo: Tristis est anima mea
Handel: Lascia ch'io pianga (from Rinaldo)
PEACE
Purcell: They tell us that your mighty powers, Z630
Handel: Susanna: Crystal streams in murmurs flowing
Pärt: Da pacem Domine
Handel: Augeletti che cantate (from Rinaldo)
Handel: Da tempeste il legno infranto (from Giulio Cesare)
Jommelli: Par che di Giubilo (from Attilio Regolo)
Strauss, R: Morgen, Op. 27 No. 4
Описание: ■ Recorded live in June 2017 at the magnificent Liceu Theatre in Barcelona, this DVD is the companion to Joyce DiDonato's award-winning album In War and Peace: Harmony through Music. Seeking answers to the existential question "In the midst of chaos, how do you find peace?", it makes a compelling piece of music theatre as DiDonato journeys through arias by Handel, Purcell, Monteverdi, Leo and Jommelli with Il Pomo d'Oro and conductor Maxim Emelyanychev.
On stage, In War and Peace: Harmony through Musicmakes a compelling piece of music theatre. In Barcelona, as on the European and North American tours she made in late 2016, DiDonato was joined by the baroque orchestra Il Pomo d'Oro and its principal conductor Maxim Emelyanychev. May and June 2018 bring further performances in Portugal, France, Germany, Turkey and Hungary.
Сэмпл
Качество видео: BDRip 720p
Формат/Контейнер: MKV
Видео кодек: H.264
Аудио кодек: DTS, FLAC
Видео поток: AVC, 1280x720 (16:9), 29.970 fps, 3 300 Kbps
Аудио#1: DTS, 48.0 KHz, 6 ch, 1 510 Kbps
Аудио#2: FLAC, 48.0 KHz, 2 ch, 616 kbps

MediaInfo/x264Log

x264Log

[Information] [19.06.2018 9:33:52] Standard error stream-[Information] [19.06.2018 9:34:27] raw [info]: 1280x720p 1:1 @ 30000/1001 fps (cfr)-[Information] [19.06.2018 9:34:27] x264 [info]: using SAR=1/1-[Information] [19.06.2018 9:34:27] x264 [info]: using cpu capabilities: MMX2 SSE2Fast SSSE3 SSE4.2 AVX-[Information] [19.06.2018 9:34:27] x264 [info]: profile High, level 4.1-[Information] [19.06.2018 16:30:36] x264 [info]: frame I:928   Avg QP:10.30  size: 96126-[Information] [19.06.2018 16:30:36] x264 [info]: frame P:43397 Avg QP:13.35  size: 31276-[Information] [19.06.2018 16:30:36] x264 [info]: frame B:137001 Avg QP:16.10  size:  7659-[Information] [19.06.2018 16:30:36] x264 [info]: consecutive B-frames:  1.7%  1.7%  8.8% 44.8% 19.4% 21.5%  1.8%  0.3%-[Information] [19.06.2018 16:30:36] x264 [info]: mb I  I16..4: 17.7% 51.3% 31.0%-[Information] [19.06.2018 16:30:36] x264 [info]: mb P  I16..4:  3.3% 10.1%  2.0%  P16..4: 27.0% 26.7% 11.2%  2.2%  0.4%    skip:17.1%-[Information] [19.06.2018 16:30:36] x264 [info]: mb B  I16..4:  0.9%  2.5%  0.3%  B16..8: 32.4% 16.8%  2.3%  direct: 3.4%  skip:41.4%  L0:47.1% L1:42.7% BI:10.2%-[Information] [19.06.2018 16:30:36] x264 [info]: 8x8 transform intra:65.0% inter:58.0%-[Information] [19.06.2018 16:30:36] x264 [info]: direct mvs  spatial:95.3% temporal:4.7%-[Information] [19.06.2018 16:30:36] x264 [info]: coded y,uvDC,uvAC intra: 33.7% 59.7% 46.6% inter: 9.8% 14.1% 4.3%-[Information] [19.06.2018 16:30:36] x264 [info]: i16 v,h,dc,p: 72% 14%  6%  8%-[Information] [19.06.2018 16:30:36] x264 [info]: i8 v,h,dc,ddl,ddr,vr,hd,vl,hu:  8%  6% 47%  5%  6%  7%  6%  6%  7%-[Information] [19.06.2018 16:30:36] x264 [info]: i4 v,h,dc,ddl,ddr,vr,hd,vl,hu: 16% 11% 38%  5%  7%  6%  6%  5%  6%-[Information] [19.06.2018 16:30:36] x264 [info]: i8c dc,h,v,p: 33% 42% 17%  8%-[Information] [19.06.2018 16:30:36] x264 [info]: Weighted P-Frames: Y:1.6% UV:0.5%-[Information] [19.06.2018 16:30:36] x264 [info]: ref P L0: 45.2%  5.6% 17.6%  8.3%  6.7%  5.5%  4.8%  3.1%  3.0%  0.1%  0.0%-[Information] [19.06.2018 16:30:36] x264 [info]: ref B L0: 69.4% 11.7%  6.8%  3.9%  3.1%  2.7%  1.8%  0.6%-[Information] [19.06.2018 16:30:36] x264 [info]: ref B L1: 95.0%  5.0%-[Information] [19.06.2018 16:30:36] x264 [info]: kb/s:3300.09-[Information] [19.06.2018 16:30:36] encoded 181326 frames, 7.26 fps, 3300.09 kb/s
GeneralUnique ID                                : 89249813602810931609069682556473107125 (0x4324E38BFE08B02FB85289348862E2B5)Complete name                            : G:\In War and Peace Harmony Through Music.BDRip720p.mkvFormat                                   : MatroskaFormat version                           : Version 2File size                                : 3.82 GiBDuration                                 : 1 h 40 minOverall bit rate mode                    : VariableOverall bit rate                         : 5 428 kb/sMovie name                               : In War and Peace Harmony Through Music.BDRip720p @ rutracker.orgEncoded date                             : UTC 2018-06-19 19:37:32Writing application                      : mkvmerge v22.0.0 ('At The End Of The World') 64-bitWriting library                          : libebml v1.3.5 + libmatroska v1.4.8
VideoID : 1Format : AVCFormat/Info : Advanced Video CodecFormat profile : [email protected] settings : CABAC / 9 Ref FramesFormat settings, CABAC : YesFormat settings, RefFrames : 9 framesCodec ID : V_MPEG4/ISO/AVCDuration : 1 h 40 minBit rate : 3 300 kb/sWidth : 1 280 pixelsHeight : 720 pixelsDisplay aspect ratio : 16:9Frame rate mode : ConstantFrame rate : 29.970 (30000/1001) FPSColor space : YUVChroma subsampling : 4:2:0Bit depth : 8 bitsScan type : ProgressiveBits/(Pixel*Frame) : 0.119Stream size : 2.32 GiB (61%)Title : anbelk27 @ rutracker.orgWriting library : x264 core 155 r2901 7d0ff22Encoding settings : cabac=1 / ref=9 / deblock=1:-1:-2 / analyse=0x3:0x133 / me=umh / subme=11 / psy=1 / psy_rd=1.15:0.07 / mixed_ref=1 / me_range=32 / chroma_me=1 / trellis=2 / 8x8dct=1 / cqm=0 / deadzone=21,11 / fast_pskip=1 / chroma_qp_offset=-3 / threads=6 / lookahead_threads=1 / sliced_threads=0 / nr=0 / decimate=1 / interlaced=0 / bluray_compat=0 / constrained_intra=0 / bframes=7 / b_pyramid=2 / b_adapt=2 / b_bias=0 / direct=3 / weightb=1 / open_gop=0 / weightp=2 / keyint=300 / keyint_min=29 / scenecut=50 / intra_refresh=0 / rc_lookahead=100 / rc=2pass / mbtree=1 / bitrate=3300 / ratetol=1.0 / qcomp=0.60 / qpmin=0 / qpmax=69 / qpstep=4 / cplxblur=20.0 / qblur=0.5 / vbv_maxrate=50000 / vbv_bufsize=62500 / nal_hrd=none / filler=0 / ip_ratio=1.40 / aq=1:1.00Default : YesForced : No
Audio #1ID : 2Format : DTSFormat/Info : Digital Theater SystemsCodec ID : A_DTSDuration : 1 h 40 minBit rate mode : ConstantBit rate : 1 509 kb/sChannel(s) : 6 channelsChannel positions : Front: L C R, Side: L R, LFESampling rate : 48.0 kHzFrame rate : 93.750 FPS (512 SPF)Bit depth : 16 bitsCompression mode : LossyStream size : 1.06 GiB (28%)Title : DTS 5.1 @ 16 bitDefault : YesForced : No
Audio #2ID : 3Format : FLACFormat/Info : Free Lossless Audio CodecCodec ID : A_FLACDuration : 1 h 40 minBit rate mode : VariableBit rate : 616 kb/sChannel(s) : 2 channelsChannel positions : Front: L RSampling rate : 48.0 kHzFrame rate : 11.719 FPS (4096 SPF)Bit depth : 16 bitsStream size : 445 MiB (11%)Title : FLAC 2.0 @ 16 bitWriting library : libFLAC 1.2.1 (UTC 2007-09-17)Default : NoForced : No
Menu00:00:00.000 : en: Opening titles00:01:28.188 : en: Handel: Scenes of horror (from Jephtha)00:08:00.447 : en: Leo: Prendi quel ferro, o barbaro! (from Andromaca)00:15:49.749 : en: Cavalieri: Rappresentazione di Anima e di Corpo: Sinfonia00:18:25.371 : en: Purcell: Chacony in G minor00:22:56.442 : en: Purcell: Thy hand, Belinda … When I am laid in earth (from Dido & Aeneas)00:27:52.638 : en: Handel: Pensieri, voi mi tormentate! (from Agrippina)00:34:48.119 : en: Gesualdo: Tristis est anima mea00:40:22.553 : en: Handel: Lascia ch'io pianga (from Rinaldo)00:47:04.388 : en: Purcell: They tell us that your mighty powers, Z63000:52:01.652 : en: Handel: Susanna: Crystal streams in murmurs flowing01:00:17.347 : en: Pärt: Da pacem Domine01:05:45.108 : en: Handel: Augeletti che cantate (from Rinaldo)01:12:14.197 : en: Handel: Da tempeste il legno infranto (from Giulio Cesare)01:21:10.232 : en: Jommelli: Par che di Giubilo (from Attilio Regolo)01:27:34.783 : en:Speech by Joyce DiDonato01:34:23.892 : en: Strauss, R: Morgen, Op. 27 No. 4

Скриншоты сравнения

http://screenshotcomparison.com/comparison/115542

Скриншоты


Вы не можете начинать темы
Вы не можете отвечать на сообщения
Вы не можете редактировать свои сообщения
Вы не можете удалять свои сообщения
Вы не можете голосовать в опросах
Вы не можете прикреплять файлы к сообщениям
Вы можете скачивать файлы