[Adventure] The Turing Test Collectors Edition - ElAmigos | Ich war's nicht | Movie Trailer addison timlin

(Post-Rock) [WEB] As Mountains - Monolight - 2012, FLAC (tracks), lossless 

Цитировать
As Mountains - Monolight




• Жанр: Post-Rock
• Носитель: WEB
• Год издания: 2012
• Издатель (лейбл) Самиздат
• Страна исполнителя (группы): Belgium
• Аудиокодек: FLAC (*.flac)
• Тип рипа: tracks
• Продолжительность: 00:30:28
• WEB релиз: bandcamp
• Наличие сканов: front

01 - Ben Hur Road (00:05:14)
02 - Matching Clouds In Lucerne (00:03:51)
03 - MonoLight (00:05:56)
04 - Wavering Trees (00:05:41)
05 - Black Mountain (00:04:47)
06 - Let me in, Let me go (00:04:55)-
-

Замер динамического диапазона

foobar2000 1.3.9 / Замер динамического диапазона (DR) 1.1.1
Дата отчёта: 2018-06-28 09:13:22
--------------------------------------------------------------------------------
Анализ: As Mountains / Monolight
--------------------------------------------------------------------------------
DR Пики RMS Продолжительность трека
--------------------------------------------------------------------------------
DR6 -0.39 дБ -8.53 дБ 5:15 01-Ben Hur Road
DR9 -0.39 дБ -12.39 дБ 3:52 02-Matching Clouds In Lucerne
DR6 -0.38 дБ -9.13 дБ 5:57 03-MonoLight
DR5 -0.37 дБ -7.01 дБ 5:42 04-Wavering Trees
DR5 -0.39 дБ -7.35 дБ 4:48 05-Black Mountain
DR10 -0.40 дБ -12.91 дБ 4:56 06-Let me in, Let me go
--------------------------------------------------------------------------------
Количество треков: 6
Реальные значения DR: DR7
Частота: 44100 Гц
Каналов: 2
Разрядность: 16
Битрейт: 559 кбит/с
Кодек: FLAC
================================================================================
-

Лог проверки качества

-----------------------
DON'T MODIFY THIS FILE
-----------------------
PERFORMER: auCDtect Task Manager, ver. 1.5.1RC3 build 1.5.1.4Copyright (c) 2008-2010 y-soft. All rights reservedhttp://y-soft.org
ANALYZER: auCDtect: CD records authenticity detector, version 0.8.2Copyright (c) 2004 Oleg Berngardt. All rights reserved.Copyright (c) 2004 Alexander Djourik. All rights reserved.
FILE: 06 - Let me in, Let me go.flac Size: 20736914 Hash: 5E89F5962781D09964C99B0880D3D86D Accuracy: -m0 Conclusion: CDDA 43% Signature: FD88809AB3F554F7902D36D48098B939B42E01B2FILE: 05 - Black Mountain.flac Size: 30685748 Hash: 826CB3C6E55931C1C7716E9EAA2FA02E Accuracy: -m0 Conclusion: CDDA 100% Signature: 49B3D4FB067CAFB5ABA5C7C7D86CA8923003F078FILE: 04 - Wavering Trees.flac Size: 38893392 Hash: 297B8861066F1F1FA9432EBED4BF2214 Accuracy: -m0 Conclusion: CDDA 100% Signature: 7AF8547CB9CB520B64321A97D77096AFFE02B66FFILE: 03 - MonoLight.flac Size: 38882047 Hash: C4AAA8594B7AFB1F73A5F127F3E5E698 Accuracy: -m0 Conclusion: CDDA 100% Signature: B12843B5267B37C5CD7D9B65DC5D2A0D4A0C302AFILE: 02 - Matching Clouds In Lucerne.flac Size: 22254778 Hash: 07572CAD670063763A6376DC2466134D Accuracy: -m0 Conclusion: CDDA 100% Signature: F8362F26FF52FD93F59FFC1F23D98467260DB079FILE: 01 - Ben Hur Road.flac Size: 37284833 Hash: D907486632BF34647ED58BC23A2AF514 Accuracy: -m0 Conclusion: CDDA 100% Signature: A6B82B141C8F6BB8D075762F4C26672ED1A24796
-

Скриншот подозрительных спектров

-
Вы не можете начинать темы
Вы не можете отвечать на сообщения
Вы не можете редактировать свои сообщения
Вы не можете удалять свои сообщения
Вы не можете голосовать в опросах
Вы не можете прикреплять файлы к сообщениям
Вы можете скачивать файлы