Наши новости | Martin McCann | Luis Fonsi Demi Lovato - Echame La Culpa (Single) (2017) (Mp3 320kbps) [Hunter]

(Gothic, industrial, post-punk) [CD] Alien Sex Fiend - Liquidhead In Tokyo - 1985 / 1996, FLAC (tracks+.cue), lossless 

Цитировать
Alien Sex Fiend / Liquidhead In Tokyo
Жанр: Gothic, industrial, post-punk
Носитель: CD
Страна-производитель диска (релиза): US
Год издания: 1985 / 1996
Издатель (лейбл): Cleopatra ‎
Номер по каталогу: CLP 9699-2
Страна исполнителя (группы): UK
Аудиокодек: FLAC (*.flac)
Тип рипа: tracks+.cue
Битрейт аудио: lossless
Продолжительность: 01:12:37
Источник (релизер): Usenet
Наличие сканов в содержимом раздачи: нет
Треклист:
1 R.I.P.
2 E.S.T.
3 Dead And Buried
4 In God We Trust
5 Back To The Egg
6 Attack
7 Lips Can't Go
8 Wild Women
9 Hee Haw
10 I Wish I Was A Dog
11 Dead & Buried (12" Version)
12 Girl At The End Of My Gun (12" Version)
13 New Christian Music (10" Version)
14 Wild Women

Лог создания рипа

X Lossless Decoder version 20141129 (148.1)
XLD extraction logfile from 2015-07-16 14:03:50 +0100
Alien Sex Fiend / Liquidhead In Tokyo
Used drive : ASUS SDRW-08D2S-U (revision A611)Media type : Pressed CD
Ripper mode : XLD Secure RipperDisable audio cache : OK for the drive with a cache less than 1375KiBMake use of C2 pointers : NORead offset correction : 696Max retry count : 20Gap status : Analyzed, Appended (except HTOA)
TOC of the extracted CD Track | Start | Length | Start sector | End sector --------------------------------------------------------- 1 | 00:00:50 | 03:48:47 | 50 | 17196 2 | 03:49:22 | 05:32:35 | 17197 | 42131 3 | 09:21:57 | 05:01:40 | 42132 | 64746 4 | 14:23:22 | 04:35:40 | 64747 | 85411 5 | 18:58:62 | 04:49:13 | 85412 | 107099 6 | 23:48:00 | 05:21:62 | 107100 | 131236 7 | 29:09:62 | 05:19:35 | 131237 | 155196 8 | 34:29:22 | 05:12:68 | 155197 | 178664 9 | 39:42:15 | 06:04:20 | 178665 | 205984 10 | 45:46:35 | 08:32:45 | 205985 | 244429 11 | 54:19:05 | 05:44:70 | 244430 | 270299 12 | 60:04:00 | 02:52:65 | 270300 | 283264 13 | 62:56:65 | 06:29:02 | 283265 | 312441 14 | 69:25:67 | 03:12:08 | 312442 | 326849
List of alternate offset correction values # | Absolute | Relative | Confidence ------------------------------------------ 1 | 6 | -690 | 1
AccurateRip Summary (DiscID: 002500b1-018febf7-bb11060e) Track 01 : OK (v1, confidence 1/1, with different offset) Track 02 : OK (v1, confidence 1/1, with different offset) Track 03 : OK (v1, confidence 1/1, with different offset) Track 04 : OK (v1, confidence 1/1, with different offset) Track 05 : OK (v1, confidence 1/1, with different offset) Track 06 : OK (v1, confidence 1/1, with different offset) Track 07 : OK (v1, confidence 1/1, with different offset) Track 08 : OK (v1, confidence 1/1, with different offset) Track 09 : OK (v1, confidence 1/1, with different offset) Track 10 : OK (v1, confidence 1/1, with different offset) Track 11 : OK (v1, confidence 1/1, with different offset) Track 12 : OK (v1, confidence 1/1, with different offset) Track 13 : OK (v1, confidence 1/1, with different offset) Track 14 : OK (v1, confidence 1/1, with different offset) ->All tracks accurately ripped.
All Tracks Album gain : -5.26 dB Peak : 1.000000 Statistics Read error : 0 Jitter error (maybe fixed) : 0 Retry sector count : 0 Damaged sector count : 0
Track 01 Filename : /Users/NLIG/Documents/XLD/Liquidhead In Tokyo (1985)/01 - R.I.P. (live).flac /Users/NLIG/Documents/XLD/Liquidhead In Tokyo (1985)/01 - R.I.P. (live).m4a Pre-gap length : 00:02:50
Track gain : -6.44 dB Peak : 1.000000 CRC32 hash (test run) : F827B6DA CRC32 hash : F827B6DA CRC32 hash (skip zero) : 057794AB AccurateRip v1 signature : D6418130 (92CDC512 w/correction) AccurateRip v2 signature : 3C05AEDA ->Accurately ripped with different offset (v1, confidence 1/1, offset -690) Statistics Read error : 0 Jitter error (maybe fixed) : 0 Retry sector count : 0 Damaged sector count : 0
Track 02 Filename : /Users/NLIG/Documents/XLD/Liquidhead In Tokyo (1985)/02 - E.S.T. (live).flac /Users/NLIG/Documents/XLD/Liquidhead In Tokyo (1985)/02 - E.S.T. (live).m4a
Track gain : -4.64 dB Peak : 1.000000 CRC32 hash (test run) : 52361BFD CRC32 hash : 52361BFD CRC32 hash (skip zero) : 27DA99BB AccurateRip v1 signature : 0FCAAC6D (7DD3D6BB w/correction) AccurateRip v2 signature : 356F0193 ->Accurately ripped with different offset (v1, confidence 1/1, offset -690) Statistics Read error : 0 Jitter error (maybe fixed) : 0 Retry sector count : 0 Damaged sector count : 0
Track 03 Filename : /Users/NLIG/Documents/XLD/Liquidhead In Tokyo (1985)/03 - Dead And Buried (live).flac /Users/NLIG/Documents/XLD/Liquidhead In Tokyo (1985)/03 - Dead And Buried (live).m4a
Track gain : -5.29 dB Peak : 1.000000 CRC32 hash (test run) : 9DAAF203 CRC32 hash : 9DAAF203 CRC32 hash (skip zero) : 453A1432 AccurateRip v1 signature : 8AB2ABFB (F82B0669 w/correction) AccurateRip v2 signature : D244AC8D ->Accurately ripped with different offset (v1, confidence 1/1, offset -690) Statistics Read error : 0 Jitter error (maybe fixed) : 0 Retry sector count : 0 Damaged sector count : 0
Track 04 Filename : /Users/NLIG/Documents/XLD/Liquidhead In Tokyo (1985)/04 - In God We Trust (live).flac /Users/NLIG/Documents/XLD/Liquidhead In Tokyo (1985)/04 - In God We Trust (live).m4a
Track gain : -4.87 dB Peak : 1.000000 CRC32 hash (test run) : 789558F9 CRC32 hash : 789558F9 CRC32 hash (skip zero) : 5393F986 AccurateRip v1 signature : 08EAD87A (9A586AF3 w/correction) AccurateRip v2 signature : 623A85C1 ->Accurately ripped with different offset (v1, confidence 1/1, offset -690) Statistics Read error : 0 Jitter error (maybe fixed) : 0 Retry sector count : 0 Damaged sector count : 0
Track 05 Filename : /Users/NLIG/Documents/XLD/Liquidhead In Tokyo (1985)/05 - Back To The Egg (live).flac /Users/NLIG/Documents/XLD/Liquidhead In Tokyo (1985)/05 - Back To The Egg (live).m4a Pre-gap length : 00:00:52
Track gain : -4.31 dB Peak : 1.000000 CRC32 hash (test run) : 8E786E04 CRC32 hash : 8E786E04 CRC32 hash (skip zero) : F7E70054 AccurateRip v1 signature : 6804500E (115D3E6E w/correction) AccurateRip v2 signature : 6A8652C2 ->Accurately ripped with different offset (v1, confidence 1/1, offset -690) Statistics Read error : 0 Jitter error (maybe fixed) : 0 Retry sector count : 0 Damaged sector count : 0
Track 06 Filename : /Users/NLIG/Documents/XLD/Liquidhead In Tokyo (1985)/06 - Attack (live).flac /Users/NLIG/Documents/XLD/Liquidhead In Tokyo (1985)/06 - Attack (live).m4a
Track gain : -3.51 dB Peak : 0.998779 CRC32 hash (test run) : 3ED9748D CRC32 hash : 3ED9748D CRC32 hash (skip zero) : 7C5958F8 AccurateRip v1 signature : 9A410794 (18EC4F6D w/correction) AccurateRip v2 signature : B6594D38 ->Accurately ripped with different offset (v1, confidence 1/1, offset -690) Statistics Read error : 0 Jitter error (maybe fixed) : 0 Retry sector count : 0 Damaged sector count : 0
Track 07 Filename : /Users/NLIG/Documents/XLD/Liquidhead In Tokyo (1985)/07 - Lips Can_t Go (live).flac /Users/NLIG/Documents/XLD/Liquidhead In Tokyo (1985)/07 - Lips Can_t Go (live).m4a
Track gain : -5.08 dB Peak : 1.000000 CRC32 hash (test run) : 057EF727 CRC32 hash : 057EF727 CRC32 hash (skip zero) : F6C99B25 AccurateRip v1 signature : EDC35980 (1952655A w/correction) AccurateRip v2 signature : B8EDF478 ->Accurately ripped with different offset (v1, confidence 1/1, offset -690) Statistics Read error : 0 Jitter error (maybe fixed) : 0 Retry sector count : 0 Damaged sector count : 0
Track 08 Filename : /Users/NLIG/Documents/XLD/Liquidhead In Tokyo (1985)/08 - Wild Women (live).flac /Users/NLIG/Documents/XLD/Liquidhead In Tokyo (1985)/08 - Wild Women (live).m4a
Track gain : -4.18 dB Peak : 1.000000 CRC32 hash (test run) : 478078ED CRC32 hash : 478078ED CRC32 hash (skip zero) : 8CCFCF7E AccurateRip v1 signature : 03E46AA1 (F81EF316 w/correction) AccurateRip v2 signature : 0DE1B7F7 ->Accurately ripped with different offset (v1, confidence 1/1, offset -690) Statistics Read error : 0 Jitter error (maybe fixed) : 0 Retry sector count : 0 Damaged sector count : 0
Track 09 Filename : /Users/NLIG/Documents/XLD/Liquidhead In Tokyo (1985)/09 - Hee Haw (live).flac /Users/NLIG/Documents/XLD/Liquidhead In Tokyo (1985)/09 - Hee Haw (live).m4a Pre-gap length : 00:00:03
Track gain : -6.51 dB Peak : 1.000000 CRC32 hash (test run) : 37243A9D CRC32 hash : 37243A9D CRC32 hash (skip zero) : 73A126DC AccurateRip v1 signature : 0887AC86 (094C8AA4 w/correction) AccurateRip v2 signature : 6B8A8D8B ->Accurately ripped with different offset (v1, confidence 1/1, offset -690) Statistics Read error : 0 Jitter error (maybe fixed) : 0 Retry sector count : 0 Damaged sector count : 0
Track 10 Filename : /Users/NLIG/Documents/XLD/Liquidhead In Tokyo (1985)/10 - I Wish I Was A Dog (live).flac /Users/NLIG/Documents/XLD/Liquidhead In Tokyo (1985)/10 - I Wish I Was A Dog (live).m4a Pre-gap length : 00:00:53
Track gain : -5.18 dB Peak : 1.000000 CRC32 hash (test run) : 5B4C1327 CRC32 hash : 5B4C1327 CRC32 hash (skip zero) : 2200C033 AccurateRip v1 signature : A36A39EE (AF081DE4 w/correction) AccurateRip v2 signature : B2DF9023 ->Accurately ripped with different offset (v1, confidence 1/1, offset -690) Statistics Read error : 0 Jitter error (maybe fixed) : 0 Retry sector count : 0 Damaged sector count : 0
Track 11 Filename : /Users/NLIG/Documents/XLD/Liquidhead In Tokyo (1985)/11 - Dead & Buried (12_ Version).flac /Users/NLIG/Documents/XLD/Liquidhead In Tokyo (1985)/11 - Dead & Buried (12_ Version).m4a Pre-gap length : 00:00:55
Track gain : -6.05 dB Peak : 1.000000 CRC32 hash (test run) : 9CB7D478 CRC32 hash : 9CB7D478 CRC32 hash (skip zero) : 17402E9F AccurateRip v1 signature : 974BF737 (1F0AAD0F w/correction) AccurateRip v2 signature : B9088F16 ->Accurately ripped with different offset (v1, confidence 1/1, offset -690) Statistics Read error : 0 Jitter error (maybe fixed) : 0 Retry sector count : 0 Damaged sector count : 0
Track 12 Filename : /Users/NLIG/Documents/XLD/Liquidhead In Tokyo (1985)/12 - Girl At The End Of My Gun (12_ Version).flac /Users/NLIG/Documents/XLD/Liquidhead In Tokyo (1985)/12 - Girl At The End Of My Gun (12_ Version).m4a Pre-gap length : 00:00:53
Track gain : -5.63 dB Peak : 0.999695 CRC32 hash (test run) : 339428A1 CRC32 hash : 339428A1 CRC32 hash (skip zero) : 0FC5B2E9 AccurateRip v1 signature : D4B9FF5D (96086D8F w/correction) AccurateRip v2 signature : 4E89C57E ->Accurately ripped with different offset (v1, confidence 1/1, offset -690) Statistics Read error : 0 Jitter error (maybe fixed) : 0 Retry sector count : 0 Damaged sector count : 0
Track 13 Filename : /Users/NLIG/Documents/XLD/Liquidhead In Tokyo (1985)/13 - New Christian Music (10_ Version).flac /Users/NLIG/Documents/XLD/Liquidhead In Tokyo (1985)/13 - New Christian Music (10_ Version).m4a Pre-gap length : 00:00:55
Track gain : -4.06 dB Peak : 0.998718 CRC32 hash (test run) : 5AB852CD CRC32 hash : 5AB852CD CRC32 hash (skip zero) : 2E3C95E2 AccurateRip v1 signature : AEB74218 (82E9781E w/correction) AccurateRip v2 signature : 5F63B32E ->Accurately ripped with different offset (v1, confidence 1/1, offset -690) Statistics Read error : 0 Jitter error (maybe fixed) : 0 Retry sector count : 0 Damaged sector count : 0
Track 14 Filename : /Users/NLIG/Documents/XLD/Liquidhead In Tokyo (1985)/14 - Wild Women.flac /Users/NLIG/Documents/XLD/Liquidhead In Tokyo (1985)/14 - Wild Women.m4a Pre-gap length : 00:00:55
Track gain : -4.28 dB Peak : 1.000000 CRC32 hash (test run) : FAD48BF4 CRC32 hash : FAD48BF4 CRC32 hash (skip zero) : 34DBB825 AccurateRip v1 signature : 4B4FB04B (1FBE08E2 w/correction) AccurateRip v2 signature : E5CD65FD ->Accurately ripped with different offset (v1, confidence 1/1, offset -690) Statistics Read error : 0 Jitter error (maybe fixed) : 0 Retry sector count : 0 Damaged sector count : 0
No errors occurred
End of status report
-----BEGIN XLD SIGNATURE-----gHTH6gl3KDKcwGlF_U6DA5xFn3B2UOxyo_VbCRDZKGIIw8CwXjMYSzMmhX9s5m2rHlsUNOFYq2fCNbqMJWCaOBcx3fyXJwKFpBFN_Pe-----END XLD SIGNATURE-----

Содержание индексной карты (.CUE)

TITLE "Liquidhead In Tokyo"PERFORMER "Alien Sex Fiend"REM GENRE "Goth Rock"REM DATE "1985"REM DISCNUMBER 1REM TOTALDISCS 1REM DISCID BB11060EREM REPLAYGAIN_ALBUM_GAIN -5.26 dBREM REPLAYGAIN_ALBUM_PEAK 1.000000FILE "01 - R.I.P. (live).flac" WAVE  TRACK 01 AUDIO    TITLE "R.I.P. (live)"    PERFORMER "Alien Sex Fiend"    REM REPLAYGAIN_TRACK_GAIN -6.44 dB    REM REPLAYGAIN_TRACK_PEAK 1.000000    PREGAP 00:00:50    INDEX 01 00:00:00FILE "02 - E.S.T. (live).flac" WAVE  TRACK 02 AUDIO    TITLE "E.S.T. (live)"    PERFORMER "Alien Sex Fiend"    REM REPLAYGAIN_TRACK_GAIN -4.64 dB    REM REPLAYGAIN_TRACK_PEAK 1.000000    INDEX 01 00:00:00FILE "03 - Dead And Buried (live).flac" WAVE  TRACK 03 AUDIO    TITLE "Dead And Buried (live)"    PERFORMER "Alien Sex Fiend"    REM REPLAYGAIN_TRACK_GAIN -5.29 dB    REM REPLAYGAIN_TRACK_PEAK 1.000000    INDEX 01 00:00:00FILE "04 - In God We Trust (live).flac" WAVE  TRACK 04 AUDIO    TITLE "In God We Trust (live)"    PERFORMER "Alien Sex Fiend"    REM REPLAYGAIN_TRACK_GAIN -4.87 dB    REM REPLAYGAIN_TRACK_PEAK 1.000000    INDEX 01 00:00:00  TRACK 05 AUDIO    TITLE "Back To The Egg (live)"    PERFORMER "Alien Sex Fiend"    REM REPLAYGAIN_TRACK_GAIN -4.31 dB    REM REPLAYGAIN_TRACK_PEAK 1.000000    INDEX 00 04:34:63FILE "05 - Back To The Egg (live).flac" WAVE    INDEX 01 00:00:00FILE "06 - Attack (live).flac" WAVE  TRACK 06 AUDIO    TITLE "Attack (live)"    PERFORMER "Alien Sex Fiend"    REM REPLAYGAIN_TRACK_GAIN -3.51 dB    REM REPLAYGAIN_TRACK_PEAK 0.998779    INDEX 01 00:00:00FILE "07 - Lips Can_t Go (live).flac" WAVE  TRACK 07 AUDIO    TITLE "Lips Can't Go (live)"    PERFORMER "Alien Sex Fiend"    REM REPLAYGAIN_TRACK_GAIN -5.08 dB    REM REPLAYGAIN_TRACK_PEAK 1.000000    INDEX 01 00:00:00FILE "08 - Wild Women (live).flac" WAVE  TRACK 08 AUDIO    TITLE "Wild Women (live)"    PERFORMER "Alien Sex Fiend"    REM REPLAYGAIN_TRACK_GAIN -4.18 dB    REM REPLAYGAIN_TRACK_PEAK 1.000000    INDEX 01 00:00:00  TRACK 09 AUDIO    TITLE "Hee Haw (live)"    PERFORMER "Alien Sex Fiend"    REM REPLAYGAIN_TRACK_GAIN -6.51 dB    REM REPLAYGAIN_TRACK_PEAK 1.000000    INDEX 00 05:12:65FILE "09 - Hee Haw (live).flac" WAVE    INDEX 01 00:00:00  TRACK 10 AUDIO    TITLE "I Wish I Was A Dog (live)"    PERFORMER "Alien Sex Fiend"    REM REPLAYGAIN_TRACK_GAIN -5.18 dB    REM REPLAYGAIN_TRACK_PEAK 1.000000    INDEX 00 06:03:42FILE "10 - I Wish I Was A Dog (live).flac" WAVE    INDEX 01 00:00:00  TRACK 11 AUDIO    TITLE "Dead & Buried (12" Version)"    PERFORMER "Alien Sex Fiend"    REM REPLAYGAIN_TRACK_GAIN -6.05 dB    REM REPLAYGAIN_TRACK_PEAK 1.000000    INDEX 00 08:31:65FILE "11 - Dead & Buried (12_ Version).flac" WAVE    INDEX 01 00:00:00  TRACK 12 AUDIO    TITLE "Girl At The End Of My Gun (12" Version)"    PERFORMER "Alien Sex Fiend"    REM REPLAYGAIN_TRACK_GAIN -5.63 dB    REM REPLAYGAIN_TRACK_PEAK 0.999695    INDEX 00 05:44:17FILE "12 - Girl At The End Of My Gun (12_ Version).flac" WAVE    INDEX 01 00:00:00  TRACK 13 AUDIO    TITLE "New Christian Music (10" Version)"    PERFORMER "Alien Sex Fiend"    REM REPLAYGAIN_TRACK_GAIN -4.06 dB    REM REPLAYGAIN_TRACK_PEAK 0.998718    INDEX 00 02:52:10FILE "13 - New Christian Music (10_ Version).flac" WAVE    INDEX 01 00:00:00  TRACK 14 AUDIO    TITLE "Wild Women"    PERFORMER "Alien Sex Fiend"    REM REPLAYGAIN_TRACK_GAIN -4.28 dB    REM REPLAYGAIN_TRACK_PEAK 1.000000    INDEX 00 06:28:22FILE "14 - Wild Women.flac" WAVE    INDEX 01 00:00:00
Вы не можете начинать темы
Вы не можете отвечать на сообщения
Вы не можете редактировать свои сообщения
Вы не можете удалять свои сообщения
Вы не можете голосовать в опросах
Вы не можете прикреплять файлы к сообщениям
Вы можете скачивать файлы