Die Edelsteinjäger | Policier | Pedro Coelho - Legendado Animação / Aventura / Comédia / Família Idioma: Inglês 2018 MKV / MP4 Torrent DownloadVídeo 10 / Áudio 10CompletoSinopse: Pedro Coelho é um animal rebelde que apronta todas no quintal e até dentro da casa do Mr. McGregor (Domhnall Gleeson), com quem trava uma dura...

(Indie-Rock) [WEB] Cats On The Beach - Bonfire Of The Vanities - 2018, FLAC (tracks), lossless 

Цитировать
Cats On The Beach - Bonfire Of The Vanities



• Жанр: Indie-Rock
• Носитель: WEB
• Год издания: 2018
• Издатель (лейбл) Самиздат
• Страна исполнителя (группы): UK
• Аудиокодек: FLAC (*.flac)
• Тип рипа: tracks
• Продолжительность: 00:46:22
• WEB релиз: bandcamp
• Наличие сканов: front

01 - Released (00:04:37)
02 - Waterloo Sunset (Will Be Covered By The Clouds Tonight) (00:04:42)
03 - Love Is Wise (00:03:43)
04 - Ferry Across The North Sea (00:02:03)
05 - Fading Spark Blues (00:03:54)
06 - Rusty Bells (00:03:46)
07 - Crystals, Rocks And Poppies (00:04:47)
08 - We Don't Believe You (00:02:58)
09 - Death Crosses His Legs (00:02:45)
10 - A Horn Is Blowing (00:03:08)
11 - I'm Killing All My Time (00:01:37)
12 - Romford Road Rented Room (00:04:52)
13 - We Don't Believe You (Acoustic) (00:03:21)-
-

Замер динамического диапазона

foobar2000 1.3.9 / Замер динамического диапазона (DR) 1.1.1
Дата отчёта: 2018-06-28 08:31:52
--------------------------------------------------------------------------------
Анализ: Cats On The Beach / Bonfire Of The Vanities
--------------------------------------------------------------------------------
DR Пики RMS Продолжительность трека
--------------------------------------------------------------------------------
DR6 -0.10 дБ -7.63 дБ 4:38 01-Released
DR5 -0.10 дБ -7.21 дБ 4:43 02-Waterloo Sunset (will be covered by the clouds tonight)
DR6 -0.10 дБ -8.20 дБ 3:44 03-Love is Wise
DR6 -0.10 дБ -6.76 дБ 2:04 04-Ferry Across the North Sea
DR6 -0.10 дБ -7.96 дБ 3:55 05-Fading Spark Blues
DR6 -0.10 дБ -7.88 дБ 3:47 06-Rusty Bells
DR7 -6.40 дБ -14.97 дБ 4:48 07-Crystals, Rocks and Poppies
DR6 -0.10 дБ -8.54 дБ 2:59 08-We Don't Believe You
DR6 -0.10 дБ -6.85 дБ 2:45 09-Death Crosses his Legs
DR7 -0.10 дБ -9.41 дБ 3:09 10-A Horn is Blowing
DR9 -0.96 дБ -10.65 дБ 1:38 11-I'm Killing all my Time
DR8 -0.21 дБ -10.98 дБ 4:52 12-Romford Road Rented Room
DR7 -5.97 дБ -16.39 дБ 3:21 13-We Don't Believe You (acoustic)
--------------------------------------------------------------------------------
Количество треков: 13
Реальные значения DR: DR7
Частота: 44100 Гц
Каналов: 2
Разрядность: 16
Битрейт: 666 кбит/с
Кодек: FLAC
================================================================================
-

Лог проверки качества

-----------------------
DON'T MODIFY THIS FILE
-----------------------
PERFORMER: auCDtect Task Manager, ver. 1.5.1RC3 build 1.5.1.4Copyright (c) 2008-2010 y-soft. All rights reservedhttp://y-soft.org
ANALYZER: auCDtect: CD records authenticity detector, version 0.8.2Copyright (c) 2004 Oleg Berngardt. All rights reserved.Copyright (c) 2004 Alexander Djourik. All rights reserved.
FILE: 13 - We Don't Believe You (Acoustic).flac Size: 16855742 Hash: B1322A0A120ED433ADB0636713E5E000 Accuracy: -m0 Conclusion: MPEG 95% Signature: 62F9407B7D3744BAAC15852A293EA4E403C276DDFILE: 12 - Romford Road Rented Room.flac Size: 29221071 Hash: 5C02808ECCB61BAD69BE68300B53731B Accuracy: -m0 Conclusion: CDDA 99% Signature: 6D14C6FA0DDF5A3024DBE71D782CAF1E35C5D434FILE: 11 - I'm Killing All My Time.flac Size: 10225774 Hash: 661654F731BE78E2CD28461EFD255BA3 Accuracy: -m0 Conclusion: CDDA 100% Signature: F28DF85C0C9716AF354D5BAA7CC38F39BC10BBB4FILE: 10 - A Horn Is Blowing.flac Size: 21782789 Hash: FACE5FB97D9DA2C1BD7167B8ACBFC3C4 Accuracy: -m0 Conclusion: CDDA 100% Signature: 61764BBEA8BC5434DC56484E876D71EE268F2E0EFILE: 09 - Death Crosses His Legs.flac Size: 20722868 Hash: BF1359770AE9E1F5CABB6FD9816393A5 Accuracy: -m0 Conclusion: CDDA 100% Signature: 4D0EB0D84AC47F7F100B20482A410F5357797961FILE: 08 - We Don't Believe You.flac Size: 20702723 Hash: 8870DF1F03026A17441E628CC40AD04A Accuracy: -m0 Conclusion: CDDA 100% Signature: 3AD3EDC16B0700888DC7915371DD488CC68BC575FILE: 07 - Crystals, Rocks And Poppies.flac Size: 23086773 Hash: 32CCDB945588AD3C12B5F79073A0FFFE Accuracy: -m0 Conclusion: MPEG 95% Signature: DB9BDC242EA0C97CEE1E3C791BA1260ADB70E424FILE: 06 - Rusty Bells.flac Size: 26734517 Hash: 0AB93A7848139DDAC6B67BF62835B1E6 Accuracy: -m0 Conclusion: CDDA 100% Signature: F0951DD44BE67734BBBE7133E967E38E21F71E98FILE: 05 - Fading Spark Blues.flac Size: 27797267 Hash: 46F2EB4DD4DDDAD3CBB8B5A52DC75F89 Accuracy: -m0 Conclusion: CDDA 100% Signature: 1D5B4AAA5543C17738A5AD4F5787630BA0B7FA32FILE: 04 - Ferry Across The North Sea.flac Size: 15595386 Hash: 64DE4B2345990DE0D4DF592AAC65D2CB Accuracy: -m0 Conclusion: CDDA 100% Signature: B6E317B43D611E97E7CB7605831F297F9571CA3BFILE: 03 - Love Is Wise.flac Size: 25291717 Hash: F87ED8D1C08963444C6D82A573EA4E5C Accuracy: -m0 Conclusion: CDDA 100% Signature: 2D66A75C9B23795ABE7C17CE49F30D24579F0B30FILE: 02 - Waterloo Sunset (Will Be Covered By The Clouds Tonight).flac Size: 33704946 Hash: 49F00F6A51B12610DDD8C72CAF082076 Accuracy: -m0 Conclusion: CDDA 100% Signature: AAF3AA7CD25241F0CF5937F079AB8618743AACFCFILE: 01 - Released.flac Size: 33568531 Hash: 6EEF76BEF91654632F1486C4A16F60F0 Accuracy: -m0 Conclusion: CDDA 99% Signature: CAC8F492851400AEC32E5705D5347780C74FCE14
-

Скриншот подозрительных спектров

-
Вы не можете начинать темы
Вы не можете отвечать на сообщения
Вы не можете редактировать свои сообщения
Вы не можете удалять свои сообщения
Вы не можете голосовать в опросах
Вы не можете прикреплять файлы к сообщениям
Вы можете скачивать файлы