Watch Online | Une nouvelle chance FRENCH WEBRIP 1080p 2018 | The House

(Britpop, Indie Rock) [CD] Space - Invasion of the Spiders - 1997, FLAC (tracks+.cue), lossless 

Цитировать
Space / Invasion of the Spiders
Жанр: Britpop, Indie Rock
Носитель: CD
Страна-производитель диска (релиза): Great Britain
Год издания: 1997
Издатель (лейбл): Gut Records
Номер по каталогу: GUTCD4
Страна исполнителя (группы): UK
Аудиокодек: FLAC (*.flac)
Тип рипа: tracks+.cue
Битрейт аудио: lossless
Продолжительность: 01.43.19
Источник (релизер): CD
Наличие сканов в содержимом раздачи: да
Треклист:

CD 1

Remixed
01. Kill Me Space (Club Mix)
02. Money Space (Club Mix)
03. Neighbourhood (Live It Club Mix)
04. Neighbourhood (Pissed Up Stomp Mix)
05. Neighbourhood (Aquarius Catherine Wheel Rd. Dub Mix)
06. Female Of The Species (D’still’d Remix Full Remix)
07. Me & You Vs. (The World Knickers Mix)
08. Me & You Vs. (The World No Knickers Mix)
09. Me & You Vs. (The Dub)
10. Dark Clouds (Alternative Version)
11. Darker Clouds
Total Time: 01:01:09

Лог создания рипа

Exact Audio Copy V0.99 prebeta 5 from 4. May 2009
Отчёт EAC об извлечении, выполненном 30. октября 2011, 16:26
Space / 1997 - Invasion Of The Spiders (Disc 1)
Дисковод: Optiarc DVD RW AD-5240S Adapter: 3 ID: 1
Режим чтения : ДостоверностьИспользование точного потока : ДаОтключение кэша аудио : ДаИспользование указателей C2 : Нет
Коррекция смещения при чтении : 48Способность читать области Lead-in и Lead-out : НетЗаполнение пропущенных сэмплов тишиной : ДаУдаление блоков с тишиной в начале и конце : НетПри вычислениях CRC использовались нулевые сэмплы : ДаИнтерфейс : Встроенный Win32-интерфейс для Win NT/2000Обработка зазоров : Добавлено к предыдущему треку
Выходной формат : Пользовательский кодировщикВыбранный битрейт : 768 kBit/sКачество : ВысокийДобавление ID3-тэга : НетУтилита сжатия : L:\программы\Exact Audio Copy\FLAC\FLAC.EXEДополнительные параметры : -6 -V -T "ARTIST=%a" -T "TITLE=%t" -T "ALBUM=%g" -T "DATE=%y" -T "TRACKNUMBER=%n" -T "GENRE=%m" -T "COMMENT=%e" %s -o %d
TOC извлечённого CD
Трек | Старт | Длительность | Начальный сектор | Конечный сектор --------------------------------------------------------------------- 1 | 0:00.00 | 5:42.10 | 0 | 25659 2 | 5:42.10 | 4:44.32 | 25660 | 46991 3 | 10:26.42 | 5:08.40 | 46992 | 70131 4 | 15:35.07 | 6:25.60 | 70132 | 99066 5 | 22:00.67 | 6:58.48 | 99067 | 130464 6 | 28:59.40 | 8:55.70 | 130465 | 170659 7 | 37:55.35 | 4:15.12 | 170660 | 189796 8 | 42:10.47 | 4:19.03 | 189797 | 209224 9 | 46:29.50 | 5:05.67 | 209225 | 232166 10 | 51:35.42 | 4:47.45 | 232167 | 253736 11 | 56:23.12 | 4:43.60 | 253737 | 275021
Трек 1
Имя файла L:\Новая папка\01. Space - Kill Me Space Club Mix.wav
Длина предзазора 0:00:02.00
Пиковый уровень 100.0 % Качество трека 100.0 % CRC копии DAF1D8D4 Точное извлечение (достоверность 3) [F4E52FE7] Копирование... OK
Трек 2
Имя файла L:\Новая папка\02. Space - Money Space Club Mix.wav
Длина предзазора 0:00:01.50
Пиковый уровень 100.0 % Качество трека 100.0 % CRC копии ED163C9A Точное извлечение (достоверность 3) [754D0E90] Копирование... OK
Трек 3
Имя файла L:\Новая папка\03. Space - Neighbourhood Live It Club Mix.wav
Длина предзазора 0:00:01.50
Пиковый уровень 70.2 % Качество трека 100.0 % CRC копии BAE1670E Точное извлечение (достоверность 3) [CA462056] Копирование... OK
Трек 4
Имя файла L:\Новая папка\04. Space - Neighbourhood Pissed Up Stomp Mix.wav
Длина предзазора 0:00:01.50
Пиковый уровень 88.4 % Качество трека 100.0 % CRC копии 13789816 Точное извлечение (достоверность 3) [66E0A196] Копирование... OK
Трек 5
Имя файла L:\Новая папка\05. Space - Neighbourhood Aquarius Catherine Wheel Rd. Dub Mix.wav
Длина предзазора 0:00:01.50
Пиковый уровень 84.1 % Качество трека 100.0 % CRC копии 90E50F86 Точное извлечение (достоверность 3) [6DA78A71] Копирование... OK
Трек 6
Имя файла L:\Новая папка\06. Space - Female Of The Species.wav
Длина предзазора 0:00:01.50
Пиковый уровень 100.0 % Качество трека 99.9 % CRC копии 5BB13BF2 Точное извлечение (достоверность 3) [975F6B94] Копирование... OK
Трек 7
Имя файла L:\Новая папка\07. Space - Me & You Vs. The World Knickers Mix.wav
Длина предзазора 0:00:01.50
Пиковый уровень 78.8 % Качество трека 100.0 % CRC копии 7DD32617 Точное извлечение (достоверность 3) [589C2EC9] Копирование... OK
Трек 8
Имя файла L:\Новая папка\08. Space - Me & You Vs. The World No Knickers Mix.wav
Длина предзазора 0:00:01.50
Пиковый уровень 78.8 % Качество трека 100.0 % CRC копии A3373CFD Точное извлечение (достоверность 3) [02E865A9] Копирование... OK
Трек 9
Имя файла L:\Новая папка\09. Space - Me & You Vs. The Dub.wav
Длина предзазора 0:00:01.50
Пиковый уровень 79.7 % Качество трека 100.0 % CRC копии 5AE622B5 Точное извлечение (достоверность 3) [91E90F2A] Копирование... OK
Трек 10
Имя файла L:\Новая папка\10. Space - Dark Clouds Alternative Version.wav
Длина предзазора 0:00:01.50
Пиковый уровень 89.1 % Качество трека 100.0 % CRC копии 8EF511BE Точное извлечение (достоверность 3) [38B5DD50] Копирование... OK
Трек 11
Имя файла L:\Новая папка\11. Space - Darker Clouds.wav
Длина предзазора 0:00:01.50
Пиковый уровень 89.1 % Качество трека 100.0 % CRC копии 00DB6B66 Точное извлечение (достоверность 3) [B908C993] Копирование... OK
Все треки извлечены точно
Ошибок не произошло
Конец отчёта

Содержание индексной карты (.CUE)

REM GENRE PopREM DATE 1997REM DISCID 9C0E520BREM COMMENT "ExactAudioCopy v0.99pb5"CATALOG 0000000000000PERFORMER "Space"TITLE "1997 - Invasion Of The Spiders (Disc 1)"FILE "01. Space - Kill Me Space Club Mix.wav" WAVE  TRACK 01 AUDIO    TITLE "Kill Me Space Club Mix"    PERFORMER "Space"    INDEX 01 00:00:00  TRACK 02 AUDIO    TITLE "Money Space Club Mix"    PERFORMER "Space"    INDEX 00 05:40:35FILE "02. Space - Money Space Club Mix.wav" WAVE    INDEX 01 00:00:00  TRACK 03 AUDIO    TITLE "Neighbourhood Live It Club Mix"    PERFORMER "Space"    INDEX 00 04:42:57FILE "03. Space - Neighbourhood Live It Club Mix.wav" WAVE    INDEX 01 00:00:00  TRACK 04 AUDIO    TITLE "Neighbourhood Pissed Up Stomp Mix"    PERFORMER "Space"    INDEX 00 05:06:65FILE "04. Space - Neighbourhood Pissed Up Stomp Mix.wav" WAVE    INDEX 01 00:00:00  TRACK 05 AUDIO    TITLE "Neighbourhood Aquarius Catherine Wheel Rd. Dub Mix"    PERFORMER "Space"    INDEX 00 06:24:10FILE "05. Space - Neighbourhood Aquarius Catherine Wheel Rd. Dub Mix.wav" WAVE    INDEX 01 00:00:00  TRACK 06 AUDIO    TITLE "Female Of The Species"    PERFORMER "Space"    INDEX 00 06:56:73FILE "06. Space - Female Of The Species.wav" WAVE    INDEX 01 00:00:00  TRACK 07 AUDIO    TITLE "Me & You Vs. The World Knickers Mix"    PERFORMER "Space"    INDEX 00 08:54:20FILE "07. Space - Me & You Vs. The World Knickers Mix.wav" WAVE    INDEX 01 00:00:00  TRACK 08 AUDIO    TITLE "Me & You Vs. The World No Knickers Mix"    PERFORMER "Space"    INDEX 00 04:13:37FILE "08. Space - Me & You Vs. The World No Knickers Mix.wav" WAVE    INDEX 01 00:00:00  TRACK 09 AUDIO    TITLE "Me & You Vs. The Dub"    PERFORMER "Space"    INDEX 00 04:17:28FILE "09. Space - Me & You Vs. The Dub.wav" WAVE    INDEX 01 00:00:00  TRACK 10 AUDIO    TITLE "Dark Clouds Alternative Version"    PERFORMER "Space"    INDEX 00 05:04:17FILE "10. Space - Dark Clouds Alternative Version.wav" WAVE    INDEX 01 00:00:00  TRACK 11 AUDIO    TITLE "Darker Clouds"    PERFORMER "Space"    INDEX 00 04:45:70FILE "11. Space - Darker Clouds.wav" WAVE    INDEX 01 00:00:00

CD 2

Unreleased
01. Dark Clouds Radio Edit
02. Kill Me Radio Edit
03. Turn Me On To Spiders
04. Rejects
05. Blow Your Cover
06. Give Me Something
07. Crisis
08. Shut Your Mouth
09. Children Of The Night
10. Influenza
11. Had Enough
Total Time: 00:42:10

Лог создания рипа

Exact Audio Copy V0.99 prebeta 5 from 4. May 2009
Отчёт EAC об извлечении, выполненном 30. октября 2011, 16:56
Space / 1997 - Invasion Of The Spiders (Disc 2)
Дисковод: Optiarc DVD RW AD-5240S Adapter: 3 ID: 1
Режим чтения : ДостоверностьИспользование точного потока : ДаОтключение кэша аудио : ДаИспользование указателей C2 : Нет
Коррекция смещения при чтении : 48Способность читать области Lead-in и Lead-out : НетЗаполнение пропущенных сэмплов тишиной : ДаУдаление блоков с тишиной в начале и конце : НетПри вычислениях CRC использовались нулевые сэмплы : ДаИнтерфейс : Встроенный Win32-интерфейс для Win NT/2000Обработка зазоров : Добавлено к предыдущему треку
Выходной формат : Пользовательский кодировщикВыбранный битрейт : 768 kBit/sКачество : ВысокийДобавление ID3-тэга : НетУтилита сжатия : L:\программы\Exact Audio Copy\FLAC\FLAC.EXEДополнительные параметры : -6 -V -T "ARTIST=%a" -T "TITLE=%t" -T "ALBUM=%g" -T "DATE=%y" -T "TRACKNUMBER=%n" -T "GENRE=%m" -T "COMMENT=%e" %s -o %d
TOC извлечённого CD
Трек | Старт | Длительность | Начальный сектор | Конечный сектор --------------------------------------------------------------------- 1 | 0:00.00 | 3:33.57 | 0 | 16031 2 | 3:33.57 | 3:51.00 | 16032 | 33356 3 | 7:24.57 | 4:36.10 | 33357 | 54066 4 | 12:00.67 | 3:12.40 | 54067 | 68506 5 | 15:13.32 | 3:07.28 | 68507 | 82559 6 | 18:20.60 | 4:07.15 | 82560 | 101099 7 | 22:28.00 | 2:39.37 | 101100 | 113061 8 | 25:07.37 | 1:59.63 | 113062 | 122049 9 | 27:07.25 | 4:23.22 | 122050 | 141796 10 | 31:30.47 | 4:18.00 | 141797 | 161146 11 | 35:48.47 | 6:18.65 | 161147 | 189561
Трек 1
Имя файла L:\Новая папка\01. Space - Dark Clouds Radio Edit.wav
Длина предзазора 0:00:02.00
Пиковый уровень 87.4 % Качество трека 100.0 % CRC теста BBE3328E CRC копии BBE3328E Точное извлечение (достоверность 3) [64F1B38C] Копирование... OK
Трек 2
Имя файла L:\Новая папка\02. Space - Kill Me Radio Edit.wav
Длина предзазора 0:00:01.50
Пиковый уровень 100.0 % Качество трека 100.0 % CRC теста 417D691B CRC копии 417D691B Точное извлечение (достоверность 3) [A100B62D] Копирование... OK
Трек 3
Имя файла L:\Новая папка\03. Space - Turn Me On To Spiders.wav
Длина предзазора 0:00:01.50
Пиковый уровень 89.1 % Качество трека 100.0 % CRC теста 6B24ABFA CRC копии 6B24ABFA Точное извлечение (достоверность 3) [6AB3FA79] Копирование... OK
Трек 4
Имя файла L:\Новая папка\04. Space - Rejects.wav
Длина предзазора 0:00:01.50
Пиковый уровень 89.1 % Качество трека 100.0 % CRC теста D5316F1C CRC копии D5316F1C Точное извлечение (достоверность 3) [988AF99A] Копирование... OK
Трек 5
Имя файла L:\Новая папка\05. Space - Blow Your Cover.wav
Длина предзазора 0:00:01.50
Пиковый уровень 79.4 % Качество трека 100.0 % CRC теста 4C1BDF85 CRC копии 4C1BDF85 Точное извлечение (достоверность 3) [67766A30] Копирование... OK
Трек 6
Имя файла L:\Новая папка\06. Space - Give Me Something.wav
Длина предзазора 0:00:01.50
Пиковый уровень 100.0 % Качество трека 100.0 % CRC теста 80C1FD36 CRC копии 80C1FD36 Точное извлечение (достоверность 3) [E11AE605] Копирование... OK
Трек 7
Имя файла L:\Новая папка\07. Space - Crisis.wav
Длина предзазора 0:00:01.50
Пиковый уровень 100.0 % Качество трека 100.0 % CRC теста 3BB48F3F CRC копии 3BB48F3F Точное извлечение (достоверность 3) [55C74914] Копирование... OK
Трек 8
Имя файла L:\Новая папка\08. Space - Shut Your Mouth.wav
Длина предзазора 0:00:01.50
Пиковый уровень 100.0 % Качество трека 99.9 % CRC теста D390B657 CRC копии D390B657 Точное извлечение (достоверность 3) [A8007E0C] Копирование... OK
Трек 9
Имя файла L:\Новая папка\09. Space - Children Of The Night.wav
Длина предзазора 0:00:01.50
Пиковый уровень 89.1 % Качество трека 100.0 % CRC теста 3D695592 CRC копии 3D695592 Точное извлечение (достоверность 3) [091C4BD2] Копирование... OK
Трек 10
Имя файла L:\Новая папка\10. Space - Influenza.wav
Длина предзазора 0:00:01.50
Пиковый уровень 79.4 % Качество трека 99.9 % CRC теста 73525AC0 CRC копии 73525AC0 Точное извлечение (достоверность 3) [26DFF6D0] Копирование... OK
Трек 11
Имя файла L:\Новая папка\11. Space - Had Enough.wav
Длина предзазора 0:00:01.50
Пиковый уровень 79.4 % Качество трека 99.9 % CRC теста 9239C2A4 CRC копии 9239C2A4 Точное извлечение (достоверность 3) [7AE022A9] Копирование... OK
Все треки извлечены точно
Ошибок не произошло
Конец отчёта

Содержание индексной карты (.CUE)

REM GENRE PopREM DATE 1997REM DISCID 7C09DF0BREM COMMENT "ExactAudioCopy v0.99pb5"CATALOG 0000000000000PERFORMER "Space"TITLE "1997 - Invasion Of The Spiders (Disc 2)"FILE "01. Space - Dark Clouds Radio Edit.wav" WAVE  TRACK 01 AUDIO    TITLE "Dark Clouds Radio Edit"    PERFORMER "Space"    INDEX 01 00:00:00  TRACK 02 AUDIO    TITLE "Kill Me Radio Edit"    PERFORMER "Space"    INDEX 00 03:32:07FILE "02. Space - Kill Me Radio Edit.wav" WAVE    INDEX 01 00:00:00  TRACK 03 AUDIO    TITLE "Turn Me On To Spiders"    PERFORMER "Space"    INDEX 00 03:49:25FILE "03. Space - Turn Me On To Spiders.wav" WAVE    INDEX 01 00:00:00  TRACK 04 AUDIO    TITLE "Rejects"    PERFORMER "Space"    INDEX 00 04:34:35FILE "04. Space - Rejects.wav" WAVE    INDEX 01 00:00:00  TRACK 05 AUDIO    TITLE "Blow Your Cover"    PERFORMER "Space"    INDEX 00 03:10:65FILE "05. Space - Blow Your Cover.wav" WAVE    INDEX 01 00:00:00  TRACK 06 AUDIO    TITLE "Give Me Something"    PERFORMER "Space"    INDEX 00 03:05:53FILE "06. Space - Give Me Something.wav" WAVE    INDEX 01 00:00:00  TRACK 07 AUDIO    TITLE "Crisis"    PERFORMER "Space"    INDEX 00 04:05:40FILE "07. Space - Crisis.wav" WAVE    INDEX 01 00:00:00  TRACK 08 AUDIO    TITLE "Shut Your Mouth"    PERFORMER "Space"    INDEX 00 02:37:62FILE "08. Space - Shut Your Mouth.wav" WAVE    INDEX 01 00:00:00  TRACK 09 AUDIO    TITLE "Children Of The Night"    PERFORMER "Space"    INDEX 00 01:58:13FILE "09. Space - Children Of The Night.wav" WAVE    INDEX 01 00:00:00  TRACK 10 AUDIO    TITLE "Influenza"    PERFORMER "Space"    INDEX 00 04:21:47FILE "10. Space - Influenza.wav" WAVE    INDEX 01 00:00:00  TRACK 11 AUDIO    TITLE "Had Enough"    PERFORMER "Space"    INDEX 00 04:16:25FILE "11. Space - Had Enough.wav" WAVE    INDEX 01 00:00:00
Space Дискография MP3
Вы не можете начинать темы
Вы не можете отвечать на сообщения
Вы не можете редактировать свои сообщения
Вы не можете удалять свои сообщения
Вы не можете голосовать в опросах
Вы не можете прикреплять файлы к сообщениям
Вы можете скачивать файлы