Wacky Races - Autorennen Total | Tag (2018) [BluRay] [720p] [YTS.AM] | Windows 10 Enterprise X64 2016 LTSB MULTi-7 MAY 2018 {Gen2}

(Gothic, industrial, post-punk) [CD] Alien Sex Fiend - Too Much Acid - 1989, FLAC (tracks+.cue), lossless 

Цитировать
Alien Sex Fiend / Too Much Acid
Жанр: Gothic, industrial, post-punk
Носитель: CD
Страна-производитель диска (релиза): UK
Год издания: 1989
Издатель (лейбл): Anagram Records ‎
Номер по каталогу: CD GRAM 41
Страна исполнителя (группы): UK
Аудиокодек: FLAC (*.flac)
Тип рипа: tracks+.cue
Битрейт аудио: lossless
Продолжительность: 01:14:17
Источник (релизер): Usenet
Наличие сканов в содержимом раздачи: нет
Треклист:
01. It Lives Again (03:57)
02. I Walk The Line (07:53)
03. Nightmare Zone (06:37)
04. Get Into It (08:16)
05. E.S.T. (Trip To The Moon) (09:40)
06. So Much To Do, So Little Time (Bun-Ho!) (04:19)
07. Haunted House (05:28)
08. Smells Like... (06:05)
09. Hurricane Fighter Plane (09:52)
10. Sample My Sausage (03:20)
11. Boneshaker Baby (08:49)

Лог создания рипа

EAC extraction logfile from 17. February 2009, 22:10 for CDAlien Sex Fiend / Too Much Acid?
Used drive : SONY DVD+-RW DW-Q58A Adapter: 1 ID: 0Read mode : Secure with NO C2, accurate stream, disable cacheRead offset correction : 6Overread into Lead-In and Lead-Out : No
Used output format : C:\Program Files\FLAC\flac.exe (User Defined Encoder) 192 kBit/s Additional command line options : -8 -V -T "artist=%a" -T "title=%t" -T "album=%g" -T "date=%y" -T "tracknumber=%n" -T "genre=%m" -T comment="%e" -T "comment=EAC-Secure Mode" %s Use compression offset : 0
Other options : Fill up missing offset samples with silence : Yes Delete leading and trailing silent blocks : No Native Win32 interface for Win NT & 2000
Track 1 Filename C:\Documents and Settings\STEVE\Desktop\AlienSexFiend\Alien Sex Fiend - Too Much Acid\01 - It Lives Again.wav
Pre-gap length 0:00:02.42
Peak level 73.2 % Track quality 100.0 % Test CRC 31A728EC Copy CRC 31A728EC Copy OK
Track 2 Filename C:\Documents and Settings\STEVE\Desktop\AlienSexFiend\Alien Sex Fiend - Too Much Acid\02 - I Walk the Line.wav
Peak level 66.8 % Track quality 100.0 % Test CRC 5449BDE6 Copy CRC 5449BDE6 Copy OK
Track 3 Filename C:\Documents and Settings\STEVE\Desktop\AlienSexFiend\Alien Sex Fiend - Too Much Acid\03 - Nightmare Zone.wav
Peak level 67.3 % Track quality 99.9 % Test CRC 70AA5FF5 Copy CRC 70AA5FF5 Copy OK
Track 4 Filename C:\Documents and Settings\STEVE\Desktop\AlienSexFiend\Alien Sex Fiend - Too Much Acid\04 - Get Into It.wav
Peak level 81.9 % Track quality 100.0 % Test CRC CECCD246 Copy CRC CECCD246 Copy OK
Track 5 Filename C:\Documents and Settings\STEVE\Desktop\AlienSexFiend\Alien Sex Fiend - Too Much Acid\05 - E.S.T. (Trip to the Moon).wav
Pre-gap length 0:00:07.04
Peak level 83.1 % Track quality 100.0 % Test CRC 5F6DC557 Copy CRC 5F6DC557 Copy OK
Track 6 Filename C:\Documents and Settings\STEVE\Desktop\AlienSexFiend\Alien Sex Fiend - Too Much Acid\06 - So Much to Do So Little Time (Bun-Ho!).wav
Pre-gap length 0:00:00.33
Peak level 75.6 % Track quality 99.9 % Test CRC 342BB7F2 Copy CRC 342BB7F2 Copy OK
Track 7 Filename C:\Documents and Settings\STEVE\Desktop\AlienSexFiend\Alien Sex Fiend - Too Much Acid\07 - Haunted House.wav
Peak level 69.8 % Track quality 99.9 % Test CRC 3E2DD35E Copy CRC 3E2DD35E Copy OK
Track 8 Filename C:\Documents and Settings\STEVE\Desktop\AlienSexFiend\Alien Sex Fiend - Too Much Acid\08 - Smells Like....wav
Peak level 82.2 % Track quality 99.9 % Test CRC 50D0A954 Copy CRC 50D0A954 Copy OK
Track 9 Filename C:\Documents and Settings\STEVE\Desktop\AlienSexFiend\Alien Sex Fiend - Too Much Acid\09 - Hurricane Fighter Plane.wav
Peak level 75.3 % Track quality 100.0 % Test CRC 9D76A468 Copy CRC 9D76A468 Copy OK
Track 10 Filename C:\Documents and Settings\STEVE\Desktop\AlienSexFiend\Alien Sex Fiend - Too Much Acid\10 - Sample My Sausage.wav
Peak level 78.4 % Track quality 100.0 % Test CRC 97A788EC Copy CRC 97A788EC Copy OK
Track 11 Filename C:\Documents and Settings\STEVE\Desktop\AlienSexFiend\Alien Sex Fiend - Too Much Acid\11 - Boneshaker Baby.wav
Peak level 71.5 % Track quality 100.0 % Test CRC 4CFD9E77 Copy CRC 4CFD9E77 Copy OK
No errors occured
End of status report

Содержание индексной карты (.CUE)

REM GENRE RockREM DATE 1989REM DISCID 9811680BREM COMMENT "ExactAudioCopy v0.95b4"PERFORMER "Alien Sex Fiend"TITLE "Too Much Acid?"FILE "Alien Sex Fiend - Too Much Acid\01 - It Lives Again.wav" WAVE  TRACK 01 AUDIO    TITLE "It Lives Again"    PERFORMER "Alien Sex Fiend"    PREGAP 00:00:32    INDEX 01 00:00:00FILE "Alien Sex Fiend - Too Much Acid\02 - I Walk the Line.wav" WAVE  TRACK 02 AUDIO    TITLE "I Walk the Line"    PERFORMER "Alien Sex Fiend"    INDEX 01 00:00:00FILE "Alien Sex Fiend - Too Much Acid\03 - Nightmare Zone.wav" WAVE  TRACK 03 AUDIO    TITLE "Nightmare Zone"    PERFORMER "Alien Sex Fiend"    INDEX 01 00:00:00FILE "Alien Sex Fiend - Too Much Acid\04 - Get Into It.wav" WAVE  TRACK 04 AUDIO    TITLE "Get Into It"    PERFORMER "Alien Sex Fiend"    INDEX 01 00:00:00  TRACK 05 AUDIO    TITLE "E.S.T. (Trip to the Moon)"    PERFORMER "Alien Sex Fiend"    INDEX 00 08:07:62FILE "Alien Sex Fiend - Too Much Acid\05 - E.S.T. (Trip to the Moon).wav" WAVE    INDEX 01 00:00:00  TRACK 06 AUDIO    TITLE "So Much to Do So Little Time (Bun-Ho!)"    PERFORMER "Alien Sex Fiend"    INDEX 00 09:41:70FILE "Alien Sex Fiend - Too Much Acid\06 - So Much to Do So Little Time (Bun-Ho!).wav" WAVE    INDEX 01 00:00:00FILE "Alien Sex Fiend - Too Much Acid\07 - Haunted House.wav" WAVE  TRACK 07 AUDIO    TITLE "Haunted House"    PERFORMER "Alien Sex Fiend"    INDEX 01 00:00:00FILE "Alien Sex Fiend - Too Much Acid\08 - Smells Like....wav" WAVE  TRACK 08 AUDIO    TITLE "Smells Like..."    PERFORMER "Alien Sex Fiend"    INDEX 01 00:00:00FILE "Alien Sex Fiend - Too Much Acid\09 - Hurricane Fighter Plane.wav" WAVE  TRACK 09 AUDIO    TITLE "Hurricane Fighter Plane"    PERFORMER "Alien Sex Fiend"    INDEX 01 00:00:00FILE "Alien Sex Fiend - Too Much Acid\10 - Sample My Sausage.wav" WAVE  TRACK 10 AUDIO    TITLE "Sample My Sausage"    PERFORMER "Alien Sex Fiend"    INDEX 01 00:00:00FILE "Alien Sex Fiend - Too Much Acid\11 - Boneshaker Baby.wav" WAVE  TRACK 11 AUDIO    TITLE "Boneshaker Baby"    PERFORMER "Alien Sex Fiend"    INDEX 01 00:00:00
Вы не можете начинать темы
Вы не можете отвечать на сообщения
Вы не можете редактировать свои сообщения
Вы не можете удалять свои сообщения
Вы не можете голосовать в опросах
Вы не можете прикреплять файлы к сообщениям
Вы можете скачивать файлы