DVDRip Alien Code (2018) | Locos Por Las Nueces 2 | Nanoui (PC)

(Noise Rock, Garage, Art Rock, Punk, Avantgarde, Lo Fi) [CD] Vertical Slit - Vertical Slit And Beyond - 1990, FLAC (tracks+.cue), lossless 

Цитировать
Vertical Slit / Vertical Slit And Beyond
Жанр: Noise Rock, Garage, Art Rock, Punk, Avantgarde, Lo Fi
Носитель: CD
Страна-производитель диска (релиза): US
Год издания: 1990
Издатель (лейбл): Ropeburn
Номер по каталогу: RB-626
Страна исполнителя (группы): Columbus, Ohio, US
Аудиокодек: FLAC (*.flac)
Тип рипа: tracks+.cue
Битрейт аудио: lossless
Продолжительность: 01:09:33
Источник (релизер): Red, NowImNothing
Наличие сканов в содержимом раздачи: нет
-

Треклист

01. It's Not Easy 1:54
02. Living In Fear 3:37
03. New Thrill/New Pill 2:10
04. Scrap Metal Burial Ground 2:47
05. The Object 1:15
06. The Dangling Thread 1:44
07. Hex That Girl 2:49
08. Smudge 7:25
09. Peruvian Landslide 1:11
10. The Starlight Investor 3:20
11. Party/Cop/Judge 1:38
12. Why I Shot The President 3:12
13. Public Service Announcement 3:54
14. Bass Bow Piece 4:53
15. 6X4F#5 2:07
16. Please Take Hold 4:13
17. My Hands Don't Sleep 2:56
18. Trenchcoat 2:57
19. The Dangling Thread Wraps Around My Neck 0:50
20. End Of An Era 2 3:38
21. I Remember Nothing 5:09
22. Populatia De Frequentia 3:30
23. Loop That Lower Loop Henry 1:06
24. End Of "Exchange" 1:18
Compiles tracks from 1976-1990:
Tracks 23, 24 from 1976
Tracks 14, 15, 22 from 1977
Track 20 from 1978
Tracks 2, 3, 8, 16, 17, 21 from 1980
Track 18 from 1984
Tracks 6, 9, 10, 19 from 1986
Tracks 4, 11, 12 from 1988
Tracks 5, 7, 13 from 1989
Track 1 from 1990
Tracks 1, 2, 5, 6, 7, 9, 10, 13, 14, 15, 17, 19, 20, 23 previously un-released.

Логи

Лог создания рипа

Exact Audio Copy V0.99 prebeta 4 from 23. January 2008
EAC extraction logfile from 2. May 2009, 12:36
Various / Vertical Slit... And Beyond
Used drive : TSSTcorpCDDVDW SH-S203B Adapter: 2 ID: 0
Read mode : SecureUtilize accurate stream : YesDefeat audio cache : YesMake use of C2 pointers : No
Read offset correction : 6Overread into Lead-In and Lead-Out : NoFill up missing offset samples with silence : YesDelete leading and trailing silent blocks : NoNull samples used in CRC calculations : YesUsed interface : Installed external ASPI interfaceGap handling : Appended to previous track
Used output format : User Defined EncoderSelected bitrate : 320 kBit/sQuality : HighAdd ID3 tag : NoCommand line compressor : C:\Program Files (x86)\FLAC\flac.exeAdditional command line options : -V -8 -T "artist=%a" -T "title=%t" -T "album=%g" -T "date=%y" -T "tracknumber=%n" -T "genre=%m" %s
TOC of the extracted CD
Track | Start | Length | Start sector | End sector --------------------------------------------------------- 1 | 0:00.00 | 1:54.05 | 0 | 8554 2 | 1:54.05 | 3:36.40 | 8555 | 24794 3 | 5:30.45 | 2:09.72 | 24795 | 34541 4 | 7:40.42 | 2:47.05 | 34542 | 47071 5 | 10:27.47 | 1:14.60 | 47072 | 52681 6 | 11:42.32 | 1:44.28 | 52682 | 60509 7 | 13:26.60 | 2:49.07 | 60510 | 73191 8 | 16:15.67 | 7:25.13 | 73192 | 106579 9 | 23:41.05 | 1:10.57 | 106580 | 111886 10 | 24:51.62 | 3:20.35 | 111887 | 126921 11 | 28:12.22 | 1:38.20 | 126922 | 134291 12 | 29:50.42 | 3:12.13 | 134292 | 148704 13 | 33:02.55 | 3:54.00 | 148705 | 166254 14 | 36:56.55 | 4:52.55 | 166255 | 188209 15 | 41:49.35 | 2:07.10 | 188210 | 197744 16 | 43:56.45 | 4:13.05 | 197745 | 216724 17 | 48:09.50 | 2:56.37 | 216725 | 229961 18 | 51:06.12 | 2:56.40 | 229962 | 243201 19 | 54:02.52 | 0:50.20 | 243202 | 246971 20 | 54:52.72 | 3:37.63 | 246972 | 263309 21 | 58:30.60 | 5:09.12 | 263310 | 286496 22 | 63:39.72 | 3:29.60 | 286497 | 302231 23 | 67:09.57 | 1:05.48 | 302232 | 307154 24 | 68:15.30 | 1:18.37 | 307155 | 313041
Track 1
Filename H:\EAC Rips\Various - 1990 - Vertical Slit... And Beyond\01 - V-3 - It's Not Easy.wav
Pre-gap length 0:00:02.00
Peak level 60.7 % Track quality 100.0 % Test CRC 7F4BD641 Copy CRC 7F4BD641 Track not present in AccurateRip database Copy OK
Track 2
Filename H:\EAC Rips\Various - 1990 - Vertical Slit... And Beyond\02 - Vertical Slit - Living In Fear.wav
Pre-gap length 0:00:03.00
Peak level 54.3 % Track quality 99.9 % Test CRC EFC6629A Copy CRC EFC6629A Track not present in AccurateRip database Copy OK
Track 3
Filename H:\EAC Rips\Various - 1990 - Vertical Slit... And Beyond\03 - Vertical Slit - New Thrill,New Pill.wav
Pre-gap length 0:00:02.58
Peak level 61.9 % Track quality 100.0 % Test CRC 560F30E0 Copy CRC 560F30E0 Track not present in AccurateRip database Copy OK
Track 4
Filename H:\EAC Rips\Various - 1990 - Vertical Slit... And Beyond\04 - V-3 - Scrap Metal Burial Ground.wav
Pre-gap length 0:00:03.37
Peak level 64.3 % Track quality 100.0 % Test CRC 5E0A952F Copy CRC 5E0A952F Track not present in AccurateRip database Copy OK
Track 5
Filename H:\EAC Rips\Various - 1990 - Vertical Slit... And Beyond\05 - Jim Shepard - The Object.wav
Pre-gap length 0:00:04.05
Peak level 63.0 % Track quality 100.0 % Test CRC A3CC36B1 Copy CRC A3CC36B1 Track not present in AccurateRip database Copy OK
Track 6
Filename H:\EAC Rips\Various - 1990 - Vertical Slit... And Beyond\06 - Jim Shepard - The Dangling Thread.wav
Pre-gap length 0:00:04.47
Peak level 62.7 % Track quality 100.0 % Test CRC 15406B1E Copy CRC 15406B1E Track not present in AccurateRip database Copy OK
Track 7
Filename H:\EAC Rips\Various - 1990 - Vertical Slit... And Beyond\07 - Jim Shepard - Hex That Girl.wav
Pre-gap length 0:00:06.03
Peak level 71.8 % Track quality 100.0 % Test CRC 8E300603 Copy CRC 8E300603 Track not present in AccurateRip database Copy OK
Track 8
Filename H:\EAC Rips\Various - 1990 - Vertical Slit... And Beyond\08 - Vertical Slit - Smudge.wav
Pre-gap length 0:00:03.27
Peak level 69.0 % Track quality 100.0 % Test CRC 510D0BE2 Copy CRC 510D0BE2 Track not present in AccurateRip database Copy OK
Track 9
Filename H:\EAC Rips\Various - 1990 - Vertical Slit... And Beyond\09 - Jim Shepard - Peruvian Landslide.wav
Pre-gap length 0:00:05.48
Peak level 41.7 % Track quality 100.0 % Test CRC EDD60C22 Copy CRC EDD60C22 Track not present in AccurateRip database Copy OK
Track 10
Filename H:\EAC Rips\Various - 1990 - Vertical Slit... And Beyond\10 - Jim Shepard - The Starlight Investor.wav
Pre-gap length 0:00:05.52
Peak level 55.5 % Track quality 100.0 % Test CRC 26934246 Copy CRC 26934246 Track not present in AccurateRip database Copy OK
Track 11
Filename H:\EAC Rips\Various - 1990 - Vertical Slit... And Beyond\11 - V-3 - Party,Cop,Judge.wav
Pre-gap length 0:00:03.37
Peak level 45.7 % Track quality 99.8 % Test CRC C610D586 Copy CRC C610D586 Track not present in AccurateRip database Copy OK
Track 12
Filename H:\EAC Rips\Various - 1990 - Vertical Slit... And Beyond\12 - V-3 - Why I Shot The President.wav
Pre-gap length 0:00:04.35
Peak level 48.0 % Track quality 100.0 % Test CRC B54E5860 Copy CRC B54E5860 Track not present in AccurateRip database Copy OK
Track 13
Filename H:\EAC Rips\Various - 1990 - Vertical Slit... And Beyond\13 - Jim Shepard - Public Service Announcement.wav
Pre-gap length 0:00:03.55
Peak level 58.8 % Track quality 100.0 % Test CRC A19CEF9E Copy CRC A19CEF9E Track not present in AccurateRip database Copy OK
Track 14
Filename H:\EAC Rips\Various - 1990 - Vertical Slit... And Beyond\14 - Vertical Slit - Bass Row Piece.wav
Pre-gap length 0:00:02.00
Peak level 58.4 % Track quality 100.0 % Test CRC 4627745D Copy CRC 4627745D Track not present in AccurateRip database Copy OK
Track 15
Filename H:\EAC Rips\Various - 1990 - Vertical Slit... And Beyond\15 - Jim Shepard - 6X4F#5.wav
Pre-gap length 0:00:04.03
Peak level 47.6 % Track quality 100.0 % Test CRC 6B116BF7 Copy CRC 6B116BF7 Track not present in AccurateRip database Copy OK
Track 16
Filename H:\EAC Rips\Various - 1990 - Vertical Slit... And Beyond\16 - Vertical Slit - Please Take Hold.wav
Pre-gap length 0:00:03.38
Peak level 56.1 % Track quality 100.0 % Test CRC 77C8832A Copy CRC 77C8832A Track not present in AccurateRip database Copy OK
Track 17
Filename H:\EAC Rips\Various - 1990 - Vertical Slit... And Beyond\17 - Vertical Slit - My Hands Don't Sleep.wav
Pre-gap length 0:00:03.73
Peak level 58.6 % Track quality 100.0 % Test CRC 59BB5158 Copy CRC 59BB5158 Track not present in AccurateRip database Copy OK
Track 18
Filename H:\EAC Rips\Various - 1990 - Vertical Slit... And Beyond\18 - Jim Shepard - Trenchcoat.wav
Pre-gap length 0:00:02.37
Peak level 56.6 % Track quality 100.0 % Test CRC 72C12341 Copy CRC 72C12341 Track not present in AccurateRip database Copy OK
Track 19
Filename H:\EAC Rips\Various - 1990 - Vertical Slit... And Beyond\19 - Jim Shepard - The Dangling Thread Wraps Around My Neck.wav
Pre-gap length 0:00:01.60
Peak level 52.5 % Track quality 100.0 % Test CRC 26E17D49 Copy CRC 26E17D49 Track not present in AccurateRip database Copy OK
Track 20
Filename H:\EAC Rips\Various - 1990 - Vertical Slit... And Beyond\20 - Vertical Slit - End Of An Era 2.wav
Pre-gap length 0:00:01.62
Peak level 39.9 % Track quality 99.9 % Test CRC B399E882 Copy CRC B399E882 Track not present in AccurateRip database Copy OK
Track 21
Filename H:\EAC Rips\Various - 1990 - Vertical Slit... And Beyond\21 - Vertical Slit - I Remember Nothing.wav
Pre-gap length 0:00:03.40
Peak level 59.0 % Track quality 99.9 % Test CRC 9D94A58E Copy CRC 9D94A58E Track not present in AccurateRip database Copy OK
Track 22
Filename H:\EAC Rips\Various - 1990 - Vertical Slit... And Beyond\22 - Vertical Slit - Populatia De Frequentia.wav
Pre-gap length 0:00:03.07
Peak level 49.5 % Track quality 100.0 % Test CRC 0EF7A418 Copy CRC 0EF7A418 Track not present in AccurateRip database Copy OK
Track 23
Filename H:\EAC Rips\Various - 1990 - Vertical Slit... And Beyond\23 - Jim Shepard - Loop That Lower Loop Henry.wav
Pre-gap length 0:00:04.50
Peak level 44.5 % Track quality 100.0 % Test CRC 963BB655 Copy CRC 963BB655 Track not present in AccurateRip database Copy OK
Track 24
Filename H:\EAC Rips\Various - 1990 - Vertical Slit... And Beyond\24 - Vertical Slit - End of 'Exchange'.wav
Pre-gap length 0:00:02.55
Peak level 63.8 % Track quality 100.0 % Test CRC 69BC24B0 Copy CRC 69BC24B0 Track not present in AccurateRip database Copy OK
None of the tracks are present in the AccurateRip database
No errors occurred
End of status report

Содержание индексной карты (.CUE)

REM DISCID 5C104D18PERFORMER "Vertical Slit"TITLE "Vertical Slit And Beyond"FILE "Vertical Slit - 01. It's Not Easy.flac" WAVE  TRACK 01 AUDIO    TITLE "It's Not Easy"    PERFORMER "Vertical Slit"    INDEX 01 00:00:00  TRACK 02 AUDIO    TITLE "Living In Fear"    PERFORMER "Vertical Slit"    INDEX 00 01:51:05FILE "Vertical Slit - 02. Living In Fear.flac" WAVE    INDEX 01 00:00:00  TRACK 03 AUDIO    TITLE "New Thrill/New Pill"    PERFORMER "Vertical Slit"    INDEX 00 03:33:57FILE "Vertical Slit - 03. New Thrill_New Pill.flac" WAVE    INDEX 01 00:00:00  TRACK 04 AUDIO    TITLE "Scrap Metal Burial Ground"    PERFORMER "Vertical Slit"    INDEX 00 02:06:35FILE "Vertical Slit - 04. Scrap Metal Burial Ground.flac" WAVE    INDEX 01 00:00:00  TRACK 05 AUDIO    TITLE "The Object"    PERFORMER "Vertical Slit"    INDEX 00 02:43:00FILE "Vertical Slit - 05. The Object.flac" WAVE    INDEX 01 00:00:00  TRACK 06 AUDIO    TITLE "The Dangling Thread"    PERFORMER "Vertical Slit"    INDEX 00 01:10:13FILE "Vertical Slit - 06. The Dangling Thread.flac" WAVE    INDEX 01 00:00:00  TRACK 07 AUDIO    TITLE "Hex That Girl"    PERFORMER "Vertical Slit"    INDEX 00 01:38:25FILE "Vertical Slit - 07. Hex That Girl.flac" WAVE    INDEX 01 00:00:00  TRACK 08 AUDIO    TITLE "Smudge"    PERFORMER "Vertical Slit"    INDEX 00 02:45:55FILE "Vertical Slit - 08. Smudge.flac" WAVE    INDEX 01 00:00:00  TRACK 09 AUDIO    TITLE "Peruvian Landslide"    PERFORMER "Vertical Slit"    INDEX 00 07:19:40FILE "Vertical Slit - 09. Peruvian Landslide.flac" WAVE    INDEX 01 00:00:00  TRACK 10 AUDIO    TITLE "The Starlight Investor"    PERFORMER "Vertical Slit"    INDEX 00 01:05:05FILE "Vertical Slit - 10. The Starlight Investor.flac" WAVE    INDEX 01 00:00:00  TRACK 11 AUDIO    TITLE "Party/Cop/Judge"    PERFORMER "Vertical Slit"    INDEX 00 03:16:73FILE "Vertical Slit - 11. Party_Cop_Judge.flac" WAVE    INDEX 01 00:00:00  TRACK 12 AUDIO    TITLE "Why I Shot The President"    PERFORMER "Vertical Slit"    INDEX 00 01:33:60FILE "Vertical Slit - 12. Why I Shot The President.flac" WAVE    INDEX 01 00:00:00  TRACK 13 AUDIO    TITLE "Public Service Announcement"    PERFORMER "Vertical Slit"    INDEX 00 03:08:33FILE "Vertical Slit - 13. Public Service Announcement.flac" WAVE    INDEX 01 00:00:00  TRACK 14 AUDIO    TITLE "Bass Bow Piece"    PERFORMER "Vertical Slit"    INDEX 00 03:52:00FILE "Vertical Slit - 14. Bass Bow Piece.flac" WAVE    INDEX 01 00:00:00  TRACK 15 AUDIO    TITLE "6X4F#5"    PERFORMER "Vertical Slit"    INDEX 00 04:48:52FILE "Vertical Slit - 15. 6X4F#5.flac" WAVE    INDEX 01 00:00:00  TRACK 16 AUDIO    TITLE "Please Take Hold"    PERFORMER "Vertical Slit"    INDEX 00 02:03:47FILE "Vertical Slit - 16. Please Take Hold.flac" WAVE    INDEX 01 00:00:00  TRACK 17 AUDIO    TITLE "My Hands Don't Sleep"    PERFORMER "Vertical Slit"    INDEX 00 04:09:07FILE "Vertical Slit - 17. My Hands Don't Sleep.flac" WAVE    INDEX 01 00:00:00  TRACK 18 AUDIO    TITLE "Trenchcoat"    PERFORMER "Vertical Slit"    INDEX 00 02:54:00FILE "Vertical Slit - 18. Trenchcoat.flac" WAVE    INDEX 01 00:00:00  TRACK 19 AUDIO    TITLE "The Dangling Thread Wraps Around My Neck"    PERFORMER "Vertical Slit"    INDEX 00 02:54:55FILE "Vertical Slit - 19. The Dangling Thread Wraps Around My Neck.flac" WAVE    INDEX 01 00:00:00  TRACK 20 AUDIO    TITLE "End Of An Era 2"    PERFORMER "Vertical Slit"    INDEX 00 00:48:33FILE "Vertical Slit - 20. End Of An Era 2.flac" WAVE    INDEX 01 00:00:00  TRACK 21 AUDIO    TITLE "I Remember Nothing"    PERFORMER "Vertical Slit"    INDEX 00 03:34:23FILE "Vertical Slit - 21. I Remember Nothing.flac" WAVE    INDEX 01 00:00:00  TRACK 22 AUDIO    TITLE "Populatia De Frequentia"    PERFORMER "Vertical Slit"    INDEX 00 05:06:05FILE "Vertical Slit - 22. Populatia De Frequentia.flac" WAVE    INDEX 01 00:00:00  TRACK 23 AUDIO    TITLE "Loop That Lower Loop Henry"    PERFORMER "Vertical Slit"    INDEX 00 03:25:10FILE "Vertical Slit - 23. Loop That Lower Loop Henry.flac" WAVE    INDEX 01 00:00:00  TRACK 24 AUDIO    TITLE "End Of 'Exchange'"    PERFORMER "Vertical Slit"    INDEX 00 01:02:68FILE "Vertical Slit - 24. End Of _Exchange_.flac" WAVE    INDEX 01 00:00:00

Лог проверки качества

fooCDtect - foobar2000 + auCDtect, baralgin.
auCDtect: CD records authenticity detector, version 0.8.2Copyright (c) 2004 Oleg Berngardt. All rights reserved.Copyright (c) 2004 Alexander Djourik. All rights reserved.
mode: 0
=========================================== Track: 01. It's Not Easy Quality: CDDA 100%=========================================== Track: 02. Living In Fear Quality: CDDA 100%=========================================== Track: 03. New Thrill-New Pill Quality: CDDA 100%=========================================== Track: 04. Scrap Metal Burial Ground Quality: CDDA 100%=========================================== Track: 05. The Object Quality: CDDA 100%=========================================== Track: 06. The Dangling Thread Quality: CDDA 100%=========================================== Track: 07. Hex That Girl Quality: CDDA 99%=========================================== Track: 08. Smudge Quality: CDDA 100%=========================================== Track: 09. Peruvian Landslide Quality: CDDA 100%=========================================== Track: 10. The Starlight Investor Quality: CDDA 100%=========================================== Track: 11. Party-Cop-Judge Quality: CDDA 100%=========================================== Track: 12. Why I Shot The President Quality: CDDA 100%=========================================== Track: 13. Public Service Announcement Quality: CDDA 100%=========================================== Track: 14. Bass Bow Piece Quality: CDDA 100%=========================================== Track: 15. 6X4F#5 Quality: CDDA 100%=========================================== Track: 16. Please Take Hold Quality: CDDA 100%=========================================== Track: 17. My Hands Don't Sleep Quality: CDDA 100%=========================================== Track: 18. Trenchcoat Quality: CDDA 100%=========================================== Track: 19. The Dangling Thread Wraps Around My Neck Quality: CDDA 100%=========================================== Track: 20. End Of An Era 2 Quality: CDDA 100%=========================================== Track: 21. I Remember Nothing Quality: CDDA 100%=========================================== Track: 22. Populatia De Frequentia Quality: CDDA 100%=========================================== Track: 23. Loop That Lower Loop Henry Quality: CDDA 99%=========================================== Track: 24. End Of ''Exchange'' Quality: CDDA 99%===========================================

Об исполнителе (группе)

Artist Biography by Jason Ankeny
Vertical Slit was spearheaded by the prolific and uncompromising Columbus, OH-based singer/guitarist Jim Shepard, later known for fronting the band V-3. Formed during the mid-'70s, the loosely constructed Vertical Slit took its cues from Shepard's piercing, feedback-intensive guitar and corrosive lyrical outlook, first documented on the barely released 1977 cassette Slit and Pre-Slit. A series of releases followed -- 1980's The Live EP and 1981's Smudge 7" among them -- all barely heard or acknowledged outside of the Ohio underground community. Though recorded a good five or six years earlier, the live Under the Blood Red Lava Lamp cassette went unreleased until 1986, followed a year later by Basement 2115; only a subsequent feature in Forced Exposure magazine brought Shepard and Vertical Slit any kind of national attention, prompting collectors to begin futilely scouring bins for the band's long-out-of-print releases. 1990's Vertical Slit and Beyond assembled highlights from the group's catalog, but excepting the 1991 cassette Your Wife Is Licking My Strobe Light and Grinning, Shepard now focused virtually all of his energies into his new outfit, V-3, taking time off upon completing 1992's Negotiate Nothing after nearly losing his hand in an industrial accident. When V-3 resurfaced in 1996 with Photograph Burns, remarkably enough, they'd landed on a major label, American's short-lived Onion imprint. Sadly, Shepard committed suicide on October 16, 1998; he was just 40 years old.
Вы не можете начинать темы
Вы не можете отвечать на сообщения
Вы не можете редактировать свои сообщения
Вы не можете удалять свои сообщения
Вы не можете голосовать в опросах
Вы не можете прикреплять файлы к сообщениям
Вы можете скачивать файлы