Indiana Jones 5 (2019) | Add news | Stephen Kings Bag of Bones 2011 HDTV XViD KiNGDOM

(Classical sacred) Verdi - Requiem & Operatic Choruses [2CD\'s] (Susan Dunn, Atlanta Symphony Orchestra & Chorus, Robert Shaw) - 1987, FLAC (image+.cue) lossless 

Цитировать
Verdi: Requiem & Operatic Choruses
Жанр: Classical sacred
Страна-производитель диска: Made in U.S.A.
Год издания диска: 1987
Издатель (лейбл): TELARC
Номер по каталогу: CD-80152
Дата записи: 1987
Аудиокодек: FLAC
Тип рипа: image+.cue
Битрейт аудио: lossless
Продолжительность: 59'10 + 54'10 / 01:53:15
Источник: релизер
сайт-источник/ник/другое: Bodtje, подарок; Karl Каменный - полный pdf буклет; Caterina Sforza - работа с cue, доп. сканы
Наличие сканов в содержимом раздачи: да, два полных pdf буклета, 19 страниц
Треклист:
CD1
Requiem
1-01 Requiem & Kyrie 9:14
1-02 Dies Irae 36:51
1-03 Offertory 10:22
1-04 Sanctus 2:41
CD2
Requiem
2-01 Agnus Dei 5:04
2-02 Lux Aeterna 6:17
2-03 Libera Me 14:03
Operatic Choruses
2-04 Spuntato Ecco From Don Carlos 5:16
2-05 Patria Oppressa! (Chorus Of Scottish Refugees) From Macbeth 5:49
2-06 Fuoco Di Gioia From Otello 2:46
2-07 Va Pensiero (Chorus Of The Hebrew Slaves) From Nabucco 5:10
2-08 Gloria All'Egitto From Aida 9:42

Исполнители

GUISEPPE VERDI (1813-1901)
RequiemOperatic Choruses
Messa da Requiem
Introitus: Requiem aeternam - Te decet hymnus - KyrieSequenz („Dies irae"):Dies irae - Quantus tremorTuba mirum - Mors stupebitLiber scriptus - Dies iraeQuid sum miserRex tremendae - Salva meRecordare - Quaerens me - Juste JudexIngemisco - Qui Mariam - Preces meae - Inter ovesConfutatis - Oro supplex - Dies iraeLacrymosa - Pie JesuOffertorium: Domine Jesu - Hostias - Quam olim AbrahaeSanctusAgnus DeiCommunio: Lux aeternaResponsorium: Libera me - Dies irae - Libera me
Избранные хоровые эпизоды:
"Spuntato ecco" from Don Carlos"Patria oppressa!" (Chorus of Scottish Refugees) from Macbeth"Fuoco di gioia" from Otello"Va pensiero" (Chorus of the Hebrew Slaves) from Nabucco"Gloria all'Egitto" from Aida
Исполнители:Susan Dunn - SopranoDiane Curry - Mezzo-SopranoJerry Hadley - TenorPaul Plishka - Bass
Atlanta Symphony Orchestra & ChorusRobert Shaw, conductor
Recorded in Symphony Hall, Atlanta, on April 11, 12 & 14, 1987

Лог создания рипа

CD1

Exact Audio Copy V1.3 from 2. September 2016
EAC extraction logfile from 26. June 2018, 10:09
Giuseppe Verdi / Requiem & Operatic Choruses (Disc 1)
Used drive : TSSTcorpDVDWBD SE-406AB Adapter: 1 ID: 2
Read mode : SecureUtilize accurate stream : YesDefeat audio cache : YesMake use of C2 pointers : No
Read offset correction : 6Overread into Lead-In and Lead-Out : NoFill up missing offset samples with silence : YesDelete leading and trailing silent blocks : NoNull samples used in CRC calculations : YesUsed interface : Native Win32 interface for Win NT & 2000
Used output format : User Defined EncoderSelected bitrate : 1024 kBit/sQuality : HighAdd ID3 tag : NoCommand line compressor : C:\Program Files (x86)\Exact Audio Copy\FLAC\FLAC.EXEAdditional command line options : -8 -e -p -V -T "ARTIST=%artist%" -T "TITLE=%title%" -T "ALBUM=%albumtitle%" -T "DATE=%year%" -T "TRACKNUMBER=%tracknr%" -T "GENRE=%genre%" -T "PERFORMER=%albuminterpret%" -T "COMPOSER=%composer%" %haslyrics%--tag-from-file=LYRICS="%lyricsfile%"%haslyrics% -T "ALBUMARTIST=%albumartist%" -T "DISCNUMBER=%cdnumber%" -T "TOTALDISCS=%totalcds%" -T "TOTALTRACKS=%numtracks%" -T "COMMENT=%comment%" %source% -o %dest%
TOC of the extracted CD
Track | Start | Length | Start sector | End sector --------------------------------------------------------- 1 | 0:00.00 | 9:14.42 | 0 | 41591 2 | 9:14.42 | 36:51.45 | 41592 | 207461 3 | 46:06.12 | 10:22.35 | 207462 | 254146 4 | 56:28.47 | 2:41.50 | 254147 | 266271
Range status and errors
Selected range
Filename K:\Rips\Verdi - Requiem - Shaw\CD1\Giuseppe Verdi - Requiem & Operatic Choruses (Disc 1).wav
Peak level 100.0 % Extraction speed 2.0 X Range quality 100.0 % Test CRC 274045A7 Copy CRC 274045A7 Copy OK
No errors occurred
AccurateRip summary
Track 1 accurately ripped (confidence 30) [3BF7208B] (AR v2)Track 2 accurately ripped (confidence 29) [D88D41FE] (AR v2)Track 3 accurately ripped (confidence 31) [2E0659EB] (AR v2)Track 4 accurately ripped (confidence 31) [A409FBA3] (AR v2)
All tracks accurately ripped
End of status report
---- CUETools DB Plugin V2.1.6
[CTDB TOCID: xoqDbKFkr7RLz5NgjUKzDHboZ8g-] foundSubmit result: xoqDbKFkr7RLz5NgjUKzDHboZ8g- has been confirmedTrack | CTDB Status 1 | ( 42/140) Accurately ripped 2 | ( 42/140) Accurately ripped 3 | (139/140) Accurately ripped 4 | (140/140) Accurately ripped
==== Log checksum BC30C2842D00F7EE1274EF85695671CAB66D710964DE34ECC6A50E0895D08931 ====

CD2

Exact Audio Copy V1.3 from 2. September 2016
EAC extraction logfile from 26. June 2018, 11:48
Robert Shaw & Atlanta Symphony Orchestra and Chorus / Verdi: Requiem & Operatic Choruses (Disc 2)
Used drive : TSSTcorpDVDWBD SE-406AB Adapter: 1 ID: 2
Read mode : SecureUtilize accurate stream : YesDefeat audio cache : YesMake use of C2 pointers : No
Read offset correction : 6Overread into Lead-In and Lead-Out : NoFill up missing offset samples with silence : YesDelete leading and trailing silent blocks : NoNull samples used in CRC calculations : YesUsed interface : Native Win32 interface for Win NT & 2000
Used output format : User Defined EncoderSelected bitrate : 1024 kBit/sQuality : HighAdd ID3 tag : NoCommand line compressor : C:\Program Files (x86)\Exact Audio Copy\FLAC\FLAC.EXEAdditional command line options : -8 -e -p -V -T "ARTIST=%artist%" -T "TITLE=%title%" -T "ALBUM=%albumtitle%" -T "DATE=%year%" -T "TRACKNUMBER=%tracknr%" -T "GENRE=%genre%" -T "PERFORMER=%albuminterpret%" -T "COMPOSER=%composer%" %haslyrics%--tag-from-file=LYRICS="%lyricsfile%"%haslyrics% -T "ALBUMARTIST=%albumartist%" -T "DISCNUMBER=%cdnumber%" -T "TOTALDISCS=%totalcds%" -T "TOTALTRACKS=%numtracks%" -T "COMMENT=%comment%" %source% -o %dest%
TOC of the extracted CD
Track | Start | Length | Start sector | End sector --------------------------------------------------------- 1 | 0:00.00 | 5:04.50 | 0 | 22849 2 | 5:04.50 | 6:17.30 | 22850 | 51154 3 | 11:22.05 | 14:03.00 | 51155 | 114379 4 | 25:25.05 | 5:16.25 | 114380 | 138104 5 | 30:41.30 | 5:49.12 | 138105 | 164291 6 | 36:30.42 | 2:46.50 | 164292 | 176791 7 | 39:17.17 | 5:10.45 | 176792 | 200086 8 | 44:27.62 | 9:42.55 | 200087 | 243791
Range status and errors
Selected range
Filename K:\Rips\Verdi - Requiem - Shaw\CD2\Giuseppe Verdi - Requiem & Operatic Choruses (Disc 2).wav
Peak level 100.0 % Extraction speed 1.9 X Range quality 100.0 % Test CRC CF982FEE Copy CRC CF982FEE Copy OK
No errors occurred
AccurateRip summary
Track 1 accurately ripped (confidence 34) [BDBD1DAD] (AR v2)Track 2 accurately ripped (confidence 34) [2490A09F] (AR v2)Track 3 accurately ripped (confidence 35) [A65538EB] (AR v2)Track 4 accurately ripped (confidence 31) [D690A0CF] (AR v2)Track 5 accurately ripped (confidence 32) [DA5A8ABC] (AR v2)Track 6 accurately ripped (confidence 32) [B28CC342] (AR v2)Track 7 accurately ripped (confidence 32) [750B0D57] (AR v2)Track 8 accurately ripped (confidence 32) [1D9BFAB3] (AR v2)
All tracks accurately ripped
End of status report
---- CUETools DB Plugin V2.1.6
[CTDB TOCID: AWPu.gFA3T99DsgFR3aCMrpVPys-] foundSubmit result: AWPu.gFA3T99DsgFR3aCMrpVPys- has been confirmedTrack | CTDB Status 1 | (110/110) Accurately ripped 2 | (110/110) Accurately ripped 3 | (109/110) Accurately ripped 4 | (110/110) Accurately ripped 5 | ( 38/110) Accurately ripped 6 | (110/110) Accurately ripped 7 | (110/110) Accurately ripped 8 | (110/110) Accurately ripped
==== Log checksum F0E592C1F4777CD53B3506D417D0D215D492DE44228DBD660A7BA35BC980485F ====

Содержание индексной карты (.CUE)

CD1

REM GENRE ClassicalREM DATE 1987REM DISCID 380DDE04REM COMMENT "ExactAudioCopy v1.3"PERFORMER "Atlanta Symphony Orchestra & Chorus, Robert Shaw (conductor) / Susan Dunn - soprano, Diane Curry - mezzo-soprano, Jerry Hadley - tenor, Paul Plishka - bass"TITLE "Requiem & Operatic Choruses (Disc 1)"REM COMPOSER "Giuseppe Verdi (1813-1901)"FILE "Giuseppe Verdi - Requiem & Operatic Choruses (Disc 1).flac" WAVE  TRACK 01 AUDIO    TITLE "Requiem. Requiem & Kyrie (Chorus)"    PERFORMER "Atlanta Symphony Orchestra, Robert Shaw & Giuseppe Verdi"    REM COMPOSER "Giuseppe Verdi"    INDEX 01 00:00:00  TRACK 02 AUDIO    TITLE "Dies Irae - 1 Dies irae (Chorus) / 2 Tuba mirum (Chorus) / 3 Mors stupebit (Bass) / 4 Liber scriptus (Mezzo-soprano and Chorus) ; Dies irae, dies  illa (Soprano, Mezzo-soplano, Tenor and Chorus) / 5 Quid sum miser (Soprano, Mezzo-soplano, Tenor and Chorus) / 6 Rex tremendae (Solo Quartet and Chorus) / 7 Recordare (Soprano and Mezzo-soprano) / 8 Ingemisco (Tenor) / 9 Confutatis (Bass and Chorus) / 10 Lacrimosa (Solo Quartet and Chorus)"    PERFORMER "Atlanta Symphony Orchestra & Chorus, Robert Shaw &  Paul Plishka, Diane Curry, Susan Dunn, Jerry Hadley"    REM COMPOSER "Giuseppe Verdi"    INDEX 01 09:14:42    INDEX 02 11:37:32    INDEX 03 13:33:67    INDEX 04 14:58:50    INDEX 05 20:00:02    INDEX 06 23:33:55    INDEX 07 27:15:62    INDEX 08 31:15:55    INDEX 09 34:54:00    INDEX 10 40:26:32  TRACK 03 AUDIO    TITLE "Offertory (Solo Quartet)"    PERFORMER "Atlanta Symphony Orchestra & Chorus, Robert Shaw & Susan Dunn, Diane Curry, Jerry Hadley, Paul Plishka"    REM COMPOSER "Giuseppe Verdi"    INDEX 01 46:06:12  TRACK 04 AUDIO    TITLE "Sanctus (Double Chorus)"    PERFORMER "Atlanta Symphony Orchestra & Chorus, Robert Shaw"    REM COMPOSER "Giuseppe Verdi"    INDEX 01 56:28:47

CD2

REM GENRE ClassicalREM DATE 1987REM DISCID 740CB208REM COMMENT "ExactAudioCopy v1.3"PERFORMER "Atlanta Symphony Orchestra & Chorus, Robert Shaw (conductor) / Susan Dunn - soprano, Diane Curry - mezzo-soprano, Jerry Hadley - tenor, Paul Plishka - bass"TITLE "Verdi: Requiem & Operatic Choruses (Disc 2)"REM COMPOSER "Giuseppe Verdi (1813-1901)"FILE "Giuseppe Verdi - Requiem & Operatic Choruses (Disc 2).flac" WAVE  TRACK 01 AUDIO    TITLE "Requiem. Agnus Dei (Soprano, Mezzo-soprano and Chorus)"    PERFORMER "Atlanta Symphony Orchestra & Chorus, Robert Shaw & Susan Dunn, Diane Curry"    REM COMPOSER "Giuseppe Verdi"    INDEX 01 00:00:00  TRACK 02 AUDIO    TITLE "Lux aeterna (Mezzo-soprano, Tenor and Bass)"    PERFORMER "Atlanta Symphony Orchestra, Robert Shaw & Diane Curry, Jerry Hadley, Paul Plishka"    REM COMPOSER "Giuseppe Verdi"    INDEX 01 05:04:50  TRACK 03 AUDIO    TITLE "Libera me - 1 Libera me / 2 Dies irae / 3 Requiem aeternam / 4 Libera me (Soprano and Chorus)"    PERFORMER "Atlanta Symphony Orchestra & Chorus, Robert Shaw & Susan Dunn"    REM COMPOSER "Giuseppe Verdi"    INDEX 01 11:22:05    INDEX 02 13:51:20    INDEX 03 16:27:07    INDEX 04 19:49:17  TRACK 04 AUDIO    TITLE "“Spunlato ecco il di” from Don Carlos (The People, Chorus of Friars)"    PERFORMER "Atlanta Symphony Orchestra & Chorus, Robert Shaw"    REM COMPOSER "Giuseppe Verdi"    INDEX 01 25:25:05  TRACK 05 AUDIO    TITLE "“Patria oppressa!” from Macbeth (Chorus of Scottish Refugees)"    PERFORMER "Atlanta Symphony Orchestra & Chorus, Robert Shaw"    REM COMPOSER "Giuseppe Verdi"    INDEX 01 30:41:30  TRACK 06 AUDIO    TITLE "“Fuoco di gioia” from Otello"    PERFORMER "Atlanta Symphony Orchestra & Chorus, Robert Shaw"    REM COMPOSER "Giuseppe Verdi"    INDEX 01 36:30:42  TRACK 07 AUDIO    TITLE "“Va pensiero” from Nabucco (Chorus of the Hebrew Slaves)"    PERFORMER "Atlanta Symphony Orchestra & Chorus, Robert Shaw"    REM COMPOSER "Giuseppe Verdi"    INDEX 01 39:17:17  TRACK 08 AUDIO    TITLE "“Gloria all'Egitto” from Aida (The People, Women, Priests)"    PERFORMER "Atlanta Symphony Orchestra & Chorus, Robert Shaw"    REM COMPOSER "Giuseppe Verdi"    INDEX 01 44:27:62
Вы не можете начинать темы
Вы не можете отвечать на сообщения
Вы не можете редактировать свои сообщения
Вы не можете удалять свои сообщения
Вы не можете голосовать в опросах
Вы не можете прикреплять файлы к сообщениям
Вы можете скачивать файлы