Wolf Hall | Н/Ф и фентези | Back to Top

Джереми Кларксон: Хороший. Плохой. Злой. / Clarkson: The Good, the Bad & the Ugly [2006, Великобритания, Документальный, HDRip 720p] 

AnthonyFREXY 05-Окт-2017 23:59
Цитировать
Джереми Кларксон: Хороший. Плохой. Злой. / Clarkson: The Good, the Bad & the Ugly -Страна: Великобритания
Режиссер: Brian Klein / Брайан Клейн
Жанр: Документальный
Дата выпуска: 2006-Продолжительность: 1:19:50
Перевод: Любительский (дублированный)-Описание: Эта программа об американских автомобилях. Но не ждите занудных рассказов и скучных тестов. Вас ждут захватывающие состязания и противоборство лучших европейских и американских "суперкаров" на американской земле. В компании с Hammer H2, Cadillac Escalade, Ford Mustang, Cadillac XLR-V, Dodge Viper, Ford GT и другими мы будем колесить по Штатам и устроим им настоящую боевую проверку. Мощь, скорость, маневренность, комфорт и многое другое...
Вы сможете сами оценить кто чего стоит на фоне машин из Европы. И уж будьте уверены, ведущий программы Джереми Кларксон не будет стесняться в выражениях, если заметит недочеты в этих машинах. А гонщик по прозвищу Стиг, выступающий в этих состязаниях за европейцев, не даст спокойно вздохнуть своим американским коллегам во время состязаний. Итак, вы готовы отправиться в автомобильное приключение по штатам вместе с нами? Тогда вперед и пусть победит сильнейший!-Качество видео: HDRip
Формат видео: MP4
Видео: AVC 1280х720, 16:9, 25 кадров/сек, 1800 Кбит/сек
Аудио: AAC, 120 Кбит/сек, 2 канала, 44,1 КГц, x264-

MediaInfo

Общее
Формат                                   : MPEG-4
Профиль формата                          : Base Media
Идентификатор кодека                     : isom
Размер файла                             : 138 Мбайт
Продолжительность                        : 1 ч. 19 м.
Режим общего битрейта                    : Переменный
Общий поток                              : 241 Кбит/сек
Дата кодирования                         : UTC 1970-01-01 00:00:00
Дата пометки                             : UTC 1970-01-01 00:00:00
Программа кодирования                    : Lavf52.40.0
Видео
Идентификатор                            : 1
Формат                                   : AVC
Формат/Информация                        : Advanced Video Codec
Профиль формата                          : [email protected]
Параметр CABAC формата                   : Да
Параметр ReFrames формата                : 3 кадра
Идентификатор кодека                     : avc1
Идентификатор кодека/Информация          : Advanced Video Coding
Продолжительность                        : 1 ч. 19 м.
Битрейт                                  : 1800 Кбит/сек
Ширина                                   : 1280 пикселей
Высота                                   : 720 пикселей
Соотношение сторон                       : 16:9
Режим частоты кадров                     : Постоянный
Частота кадров                           : 25,000 кадров/сек
Цветовое пространство                    : YUV
Субдискретизация насыщенности            : 4:2:0
Битовая глубина                          : 8 бит
Тип развёртки                            : Прогрессивная
Бит/(Пиксели*Кадры)                      : 0.078
Размер потока                            : 1,00 Гбайт
Библиотека кодирования                   : x264 core 79
Настройки программы                      : cabac=1 / ref=3 / deblock=1:0:0 / analyse=0x3:0x113 / me=hex / subme=7 / psy=1 / psy_rd=1.0:0.0 / mixed_ref=1 / me_range=16 / chroma_me=1 / trellis=1 / 8x8dct=1 / cqm=0 / deadzone=21,11 / chroma_qp_offset=-2 / threads=24 / nr=0 / decimate=1 / mbaff=0 / constrained_intra=0 / bframes=3 / b_pyramid=0 / b_adapt=1 / b_bias=0 / direct=1 / wpredb=32 / wpredp=2 / keyint=250 / keyint_min=25 / scenecut=40 / rc_lookahead=40 / rc=abr / mbtree=1 / bitrate=1800 / ratetol=2.2 / qcomp=0.60 / qpmin=10 / qpmax=51 / qpstep=4 / ip_ratio=1.41 / aq=1:1.00
Язык                                     : English
Дата кодирования                         : UTC 1970-01-01 00:00:00
Дата пометки                             : UTC 1970-01-01 00:00:00
Аудио
Идентификатор                            : 2
Формат                                   : AAC
Формат/Информация                        : Advanced Audio Codec
Профиль формата                          : LC
Идентификатор кодека                     : 40
Продолжительность                        : 1 ч. 19 м.
Вид битрейта                             : Переменный
Битрейт                                  : 120 Кбит/сек
Каналы                                   : 2 канала
Расположение каналов                     : Front: L R
Частота                                  : 44,1 КГц
Метод сжатия                             : С потерями
Размер потока                            : 68,3 Мбайт (50%)
Язык                                     : English

Скриншоты

Вы не можете начинать темы
Вы не можете отвечать на сообщения
Вы не можете редактировать свои сообщения
Вы не можете удалять свои сообщения
Вы не можете голосовать в опросах
Вы не можете прикреплять файлы к сообщениям
Вы можете скачивать файлы