Goldtaucher der Beringsee | Eps4 The Putin Interviews (2017) | Season 3 Episode 16 Into the Speed Force

(R&B, Soul) [CD] SWV (Sisters With Voices) - Still (Target Exclusive) - 2016, FLAC (tracks+.cue), lossless 

Цитировать
SWV (Sisters With Voices) / Still (Target Exclusive)
Жанр: R&B, Soul
Носитель: CD
Страна-производитель диска (релиза): US
Год издания: 2016
Издатель (лейбл): eOne Music
Номер по каталогу: EOM-CD-5363
Страна исполнителя (группы): US
Аудиокодек: FLAC (*.flac)
Тип рипа: tracks+.cue
Битрейт аудио: lossless
Продолжительность: 00:48:08
Источник (релизер): сетевой торрент (Кинозал.ТВ)
Наличие сканов в содержимом раздачи: да
Треклист:
01. Still (3:30)
02. MCE [Man Crush Everyday] (3:56)
03. On Tonight (3:05)
04. Let's Make Music (3:41)
05. Ain't No Man (3:34)
06. Love Song (3:50)
07. When Love Didn't Hurt (4:39)
08. Miss You (3:24)
09. Leaving You Alone (3:30)
10. What We Gonna Do (3:50)
Target Exclusive Bonus:
11. Right Here (1:47)
12. I'm So Into You (2:10)
13. Weak (7:11)

Лог создания рипа

Exact Audio Copy V1.1 from 23. June 2015
EAC extraction logfile from 6. February 2016, 16:17
SWV / Still
Used drive : hp DVD RW AD-7711H Adapter: 1 ID: 0
Read mode : Secure
Utilize accurate stream : Yes
Defeat audio cache : Yes
Make use of C2 pointers : No
Read offset correction : 48
Overread into Lead-In and Lead-Out : No
Fill up missing offset samples with silence : Yes
Delete leading and trailing silent blocks : No
Null samples used in CRC calculations : Yes
Used interface : Native Win32 interface for Win NT & 2000
Gap handling : Appended to previous track
Used output format : User Defined Encoder
Selected bitrate : 1024 kBit/s
Quality : High
Add ID3 tag : Yes
Command line compressor : C:\Program Files (x86)\Exact Audio Copy\Flac\flac.exe
Additional command line options : -8 -V -T "ARTIST=%artist%" -T "TITLE=%title%" -T "ALBUM=%albumtitle%" -T "DATE=%year%" -T "TRACKNUMBER=%tracknr%" -T "GENRE=%genre%" -T "PERFORMER=%albuminterpret%" -T "COMPOSER=%composer%" %haslyrics%--tag-from-file=LYRICS="%lyricsfile%"%haslyrics% -T "ALBUMARTIST=%albumartist%" -T "DISCNUMBER=%cdnumber%" -T "TOTALDISCS=%totalcds%" -T "TOTALTRACKS=%numtracks%" -T "COMMENT=%comment%" %source% -o %dest%
TOC of the extracted CD
Track | Start | Length | Start sector | End sector
---------------------------------------------------------
1 | 0:00.00 | 3:30.28 | 0 | 15777
2 | 3:30.28 | 3:55.67 | 15778 | 33469
3 | 7:26.20 | 3:05.33 | 33470 | 47377
4 | 10:31.53 | 3:40.69 | 47378 | 63946
5 | 14:12.47 | 3:34.21 | 63947 | 80017
6 | 17:46.68 | 3:50.16 | 80018 | 97283
7 | 21:37.09 | 4:39.17 | 97284 | 118225
8 | 26:16.26 | 3:23.40 | 118226 | 133490
9 | 29:39.66 | 3:29.38 | 133491 | 149203
10 | 33:09.29 | 3:50.22 | 149204 | 166475
11 | 36:59.51 | 1:47.32 | 166476 | 174532
12 | 38:47.08 | 2:10.14 | 174533 | 184296
13 | 40:57.22 | 7:11.00 | 184297 | 216621
Track 1
Filename C:\Users\Stu4rt\Music\2016 - Still [Target Exclusive]\01 - Still.wav
Pre-gap length 0:00:02.00
Peak level 99.9 %
Extraction speed 2.8 X
Track quality 100.0 %
Test CRC 31D89167
Copy CRC 31D89167
Track not present in AccurateRip database
Copy OK
Track 2
Filename C:\Users\Stu4rt\Music\2016 - Still [Target Exclusive]\02 - MCE [Man Crush Everyday].wav
Peak level 99.9 %
Extraction speed 3.1 X
Track quality 100.0 %
Test CRC 472DC88C
Copy CRC 472DC88C
Track not present in AccurateRip database
Copy OK
Track 3
Filename C:\Users\Stu4rt\Music\2016 - Still [Target Exclusive]\03 - On Tonight.wav
Peak level 99.9 %
Extraction speed 3.3 X
Track quality 100.0 %
Test CRC E03D8BF2
Copy CRC E03D8BF2
Track not present in AccurateRip database
Copy OK
Track 4
Filename C:\Users\Stu4rt\Music\2016 - Still [Target Exclusive]\04 - Let's Make Music.wav
Peak level 99.8 %
Extraction speed 3.5 X
Track quality 100.0 %
Test CRC 9D09FCD5
Copy CRC 9D09FCD5
Track not present in AccurateRip database
Copy OK
Track 5
Filename C:\Users\Stu4rt\Music\2016 - Still [Target Exclusive]\05 - Ain't No Man.wav
Peak level 99.9 %
Extraction speed 3.7 X
Track quality 100.0 %
Test CRC 7329715D
Copy CRC 7329715D
Track not present in AccurateRip database
Copy OK
Track 6
Filename C:\Users\Stu4rt\Music\2016 - Still [Target Exclusive]\06 - Love Song.wav
Peak level 99.9 %
Extraction speed 4.0 X
Track quality 100.0 %
Test CRC D6E4FA72
Copy CRC D6E4FA72
Track not present in AccurateRip database
Copy OK
Track 7
Filename C:\Users\Stu4rt\Music\2016 - Still [Target Exclusive]\07 - When Love Didn't Hurt.wav
Peak level 99.9 %
Extraction speed 3.7 X
Track quality 99.9 %
Test CRC A1FB8542
Copy CRC A1FB8542
Track not present in AccurateRip database
Copy OK
Track 8
Filename C:\Users\Stu4rt\Music\2016 - Still [Target Exclusive]\08 - Miss You.wav
Peak level 99.9 %
Extraction speed 3.5 X
Track quality 99.9 %
Test CRC A8AD4B2D
Copy CRC A8AD4B2D
Track not present in AccurateRip database
Copy OK
Track 9
Filename C:\Users\Stu4rt\Music\2016 - Still [Target Exclusive]\09 - Leaving You Alone.wav
Peak level 99.8 %
Extraction speed 3.7 X
Track quality 99.9 %
Test CRC 853B322C
Copy CRC 853B322C
Track not present in AccurateRip database
Copy OK
Track 10
Filename C:\Users\Stu4rt\Music\2016 - Still [Target Exclusive]\10 - What We Gonna Do.wav
Peak level 99.9 %
Extraction speed 4.7 X
Track quality 100.0 %
Test CRC B647A100
Copy CRC B647A100
Track not present in AccurateRip database
Copy OK
Track 11
Filename C:\Users\Stu4rt\Music\2016 - Still [Target Exclusive]\11 - Right Here [Bonus Track].wav
Peak level 99.9 %
Extraction speed 4.1 X
Track quality 100.0 %
Test CRC 7260625C
Copy CRC 7260625C
Track not present in AccurateRip database
Copy OK
Track 12
Filename C:\Users\Stu4rt\Music\2016 - Still [Target Exclusive]\12 - I'm So Into You [Bonus Track].wav
Peak level 99.9 %
Extraction speed 4.5 X
Track quality 100.0 %
Test CRC 2166D9AF
Copy CRC 2166D9AF
Track not present in AccurateRip database
Copy OK
Track 13
Filename C:\Users\Stu4rt\Music\2016 - Still [Target Exclusive]\13 - Weak [Bonus Track].wav
Peak level 99.9 %
Extraction speed 5.5 X
Track quality 100.0 %
Test CRC CD74E079
Copy CRC CD74E079
Track not present in AccurateRip database
Copy OK
None of the tracks are present in the AccurateRip database
No errors occurred
End of status report
---- CUETools DB Plugin V2.1.6
[CTDB TOCID: NDvh6_aOyXnOTIfSvLxdMhFOG2Y-] disk not present in database
Submit result: NDvh6_aOyXnOTIfSvLxdMhFOG2Y- has been uploaded
==== Log checksum C05B8CF50EC1A4176ED61AC3A6105788EA03828E8394E2D16CFB5ACDD4F39C97 ====

Содержание индексной карты (.CUE)

REM GENRE R&B
REM DATE 2016
REM DISCID BD0B480D
REM COMMENT "ExactAudioCopy v1.1"
CATALOG 0099923536321
PERFORMER "SWV"
TITLE "Still"
FILE "01 - Still.wav" WAVE
TRACK 01 AUDIO
TITLE "Still"
PERFORMER "SWV"
ISRC USKO11502666
INDEX 01 00:00:00
FILE "02 - MCE [Man Crush Everyday].wav" WAVE
TRACK 02 AUDIO
TITLE "MCE [Man Crush Everyday]"
PERFORMER "SWV"
ISRC USKO11502667
INDEX 01 00:00:00
FILE "03 - On Tonight.wav" WAVE
TRACK 03 AUDIO
TITLE "On Tonight"
PERFORMER "SWV"
ISRC USKO11502668
INDEX 01 00:00:00
FILE "04 - Let's Make Music.wav" WAVE
TRACK 04 AUDIO
TITLE "Let's Make Music"
PERFORMER "SWV"
ISRC USKO11502669
INDEX 01 00:00:00
FILE "05 - Ain't No Man.wav" WAVE
TRACK 05 AUDIO
TITLE "Ain't No Man"
PERFORMER "SWV"
ISRC USKO11501154
INDEX 01 00:00:00
FILE "06 - Love Song.wav" WAVE
TRACK 06 AUDIO
TITLE "Love Song"
PERFORMER "SWV"
ISRC USKO11502670
INDEX 01 00:00:00
FILE "07 - When Love Didn't Hurt.wav" WAVE
TRACK 07 AUDIO
TITLE "When Love Didn't Hurt"
PERFORMER "SWV"
ISRC USKO11502671
INDEX 01 00:00:00
FILE "08 - Miss You.wav" WAVE
TRACK 08 AUDIO
TITLE "Miss You"
PERFORMER "SWV"
ISRC USKO11502672
INDEX 01 00:00:00
FILE "09 - Leaving You Alone.wav" WAVE
TRACK 09 AUDIO
TITLE "Leaving You Alone"
PERFORMER "SWV"
ISRC USKO11502673
INDEX 01 00:00:00
FILE "10 - What We Gonna Do.wav" WAVE
TRACK 10 AUDIO
TITLE "What We Gonna Do"
PERFORMER "SWV"
ISRC USKO11502674
INDEX 01 00:00:00
FILE "11 - Right Here.wav" WAVE
TRACK 11 AUDIO
TITLE "Right Here"
PERFORMER "SWV"
ISRC USKO11502675
INDEX 01 00:00:00
FILE "12 - I'm So Into You.wav" WAVE
TRACK 12 AUDIO
TITLE "I'm So Into You"
PERFORMER "SWV"
ISRC USKO11502676
INDEX 01 00:00:00
FILE "13 - Weak.wav" WAVE
TRACK 13 AUDIO
TITLE "Weak"
PERFORMER "SWV"
ISRC USKO11502677
INDEX 01 00:00:00

Лог проверки качества

fooCDtect - foobar2000 + auCDtect, baralgin.
auCDtect: CD records authenticity detector, version 0.8.2
Copyright (c) 2004 Oleg Berngardt. All rights reserved.
Copyright (c) 2004 Alexander Djourik. All rights reserved.
mode: 0
===========================================
Track: 01. SWV - Still
Processing file: [01. SWV - Still.aucdtect]
Detected average hi-boundary frequency: 2.056022e+004 Hz
Detected average lo-boundary frequency: 1.442409e+004 Hz
Detected average hi-cut frequency: 2.174620e+004 Hz
Detected average lo-cut frequency: 1.441868e+004 Hz
Maximum probablis boundary frequency: 2.189100e+004 Hz
Coefficient of nonlinearity of a phase: 1.676697e-001
First order smothness: 4.539386e-001
Second order smothness: 7.187361e-001
------------------------------------------------------------
This track looks like CDDA with probability 100%
===========================================
Track: 02. SWV - MCE [Man Crush Everyday]
Processing file: [02. SWV - MCE [Man Crush Everyday].aucdtect]
Detected average hi-boundary frequency: 2.048936e+004 Hz
Detected average lo-boundary frequency: 1.275365e+004 Hz
Detected average hi-cut frequency: 2.173747e+004 Hz
Detected average lo-cut frequency: 1.544406e+004 Hz
Maximum probablis boundary frequency: 2.171900e+004 Hz
Coefficient of nonlinearity of a phase: 1.840717e-001
First order smothness: 3.697379e-001
Second order smothness: 7.736299e-001
------------------------------------------------------------
This track looks like CDDA with probability 100%
===========================================
Track: 03. SWV - On Tonight
Processing file: [03. SWV - On Tonight.aucdtect]
Detected average hi-boundary frequency: 2.064785e+004 Hz
Detected average lo-boundary frequency: 1.405973e+004 Hz
Detected average hi-cut frequency: 2.178316e+004 Hz
Detected average lo-cut frequency: 1.517672e+004 Hz
Maximum probablis boundary frequency: 2.189100e+004 Hz
Coefficient of nonlinearity of a phase: 3.725131e-001
First order smothness: 4.217962e-001
Second order smothness: 6.553986e-001
------------------------------------------------------------
This track looks like CDDA with probability 100%
===========================================
Track: 04. SWV - Let's Make Music
Processing file: [04. SWV - Let's Make Music.aucdtect]
Detected average hi-boundary frequency: 2.023043e+004 Hz
Detected average lo-boundary frequency: 1.361281e+004 Hz
Detected average hi-cut frequency: 2.181394e+004 Hz
Detected average lo-cut frequency: 1.067835e+004 Hz
Maximum probablis boundary frequency: 2.189100e+004 Hz
Coefficient of nonlinearity of a phase: 1.391845e-001
First order smothness: 4.407643e-001
Second order smothness: 5.685775e-001
------------------------------------------------------------
This track looks like CDDA with probability 100%
===========================================
Track: 05. SWV - Ain't No Man
Processing file: [05. SWV - Ain't No Man.aucdtect]
Detected average hi-boundary frequency: 2.008633e+004 Hz
Detected average lo-boundary frequency: 1.332031e+004 Hz
Detected average hi-cut frequency: 2.173792e+004 Hz
Detected average lo-cut frequency: 8.646591e+003 Hz
Maximum probablis boundary frequency: 2.189100e+004 Hz
Coefficient of nonlinearity of a phase: 1.269512e-001
First order smothness: 3.976378e-001
Second order smothness: 5.625547e-001
------------------------------------------------------------
This track looks like CDDA with probability 100%
===========================================
Track: 06. SWV - Love Song
Processing file: [06. SWV - Love Song.aucdtect]
Detected average hi-boundary frequency: 2.146708e+004 Hz
Detected average lo-boundary frequency: 1.991198e+004 Hz
Detected average hi-cut frequency: 2.164541e+004 Hz
Detected average lo-cut frequency: 2.103039e+004 Hz
Maximum probablis boundary frequency: 2.157900e+004 Hz
Coefficient of nonlinearity of a phase: 1.040526e-001
First order smothness: 7.976432e-001
Second order smothness: 7.618854e-001
------------------------------------------------------------
This track looks like MPEG with probability 100%
===========================================
Track: 07. SWV - When Love Didn't Hurt
Processing file: [07. SWV - When Love Didn't Hurt.aucdtect]
Detected average hi-boundary frequency: 2.042645e+004 Hz
Detected average lo-boundary frequency: 1.458754e+004 Hz
Detected average hi-cut frequency: 2.160786e+004 Hz
Detected average lo-cut frequency: 1.509475e+004 Hz
Maximum probablis boundary frequency: 2.189100e+004 Hz
Coefficient of nonlinearity of a phase: 9.654166e-002
First order smothness: 4.440735e-001
Second order smothness: 7.836394e-001
------------------------------------------------------------
This track looks like CDDA with probability 100%
===========================================
Track: 08. SWV - Miss You
Processing file: [08. SWV - Miss You.aucdtect]
Detected average hi-boundary frequency: 2.015086e+004 Hz
Detected average lo-boundary frequency: 1.280089e+004 Hz
Detected average hi-cut frequency: 2.180438e+004 Hz
Detected average lo-cut frequency: 1.321961e+004 Hz
Maximum probablis boundary frequency: 2.189100e+004 Hz
Coefficient of nonlinearity of a phase: 1.280270e-001
First order smothness: 3.870225e-001
Second order smothness: 7.514956e-001
------------------------------------------------------------
This track looks like CDDA with probability 100%
===========================================
Track: 09. SWV - Leaving You Alone
Processing file: [09. SWV - Leaving You Alone.aucdtect]
Detected average hi-boundary frequency: 2.091804e+004 Hz
Detected average lo-boundary frequency: 1.448151e+004 Hz
Detected average hi-cut frequency: 2.165280e+004 Hz
Detected average lo-cut frequency: 1.923415e+004 Hz
Maximum probablis boundary frequency: 2.115900e+004 Hz
Coefficient of nonlinearity of a phase: 2.424867e-001
First order smothness: 4.565314e-001
Second order smothness: 8.452965e-001
------------------------------------------------------------
This track looks like CDDA with probability 100%
===========================================
Track: 10. SWV - What We Gonna Do
Processing file: [10. SWV - What We Gonna Do.aucdtect]
Detected average hi-boundary frequency: 2.043937e+004 Hz
Detected average lo-boundary frequency: 1.398874e+004 Hz
Detected average hi-cut frequency: 2.185074e+004 Hz
Detected average lo-cut frequency: 1.646206e+004 Hz
Maximum probablis boundary frequency: 2.189100e+004 Hz
Coefficient of nonlinearity of a phase: 2.141289e-001
First order smothness: 3.932493e-001
Second order smothness: 7.799919e-001
------------------------------------------------------------
This track looks like CDDA with probability 100%
===========================================
Track: 11. SWV - Right Here
Processing file: [11. SWV - Right Here.aucdtect]
Detected average hi-boundary frequency: 2.147770e+004 Hz
Detected average lo-boundary frequency: 1.975034e+004 Hz
Detected average hi-cut frequency: 2.165697e+004 Hz
Detected average lo-cut frequency: 2.119933e+004 Hz
Maximum probablis boundary frequency: 2.157900e+004 Hz
Coefficient of nonlinearity of a phase: 1.432811e-001
First order smothness: 7.842288e-001
Second order smothness: 7.972270e-001
------------------------------------------------------------
This track looks like MPEG with probability 100%
===========================================
Track: 12. SWV - I'm So Into You
Processing file: [12. SWV - I'm So Into You.aucdtect]
Detected average hi-boundary frequency: 2.130767e+004 Hz
Detected average lo-boundary frequency: 1.748161e+004 Hz
Detected average hi-cut frequency: 2.194828e+004 Hz
Detected average lo-cut frequency: 1.880515e+004 Hz
Maximum probablis boundary frequency: 2.189100e+004 Hz
Coefficient of nonlinearity of a phase: 1.356363e-001
First order smothness: 6.198288e-001
Second order smothness: 6.012839e-001
------------------------------------------------------------
This track looks like CDDA with probability 100%
===========================================
Track: 13. SWV - Weak
Processing file: [13. SWV - Weak.aucdtect]
Detected average hi-boundary frequency: 2.152022e+004 Hz
Detected average lo-boundary frequency: 2.045381e+004 Hz
Detected average hi-cut frequency: 2.164573e+004 Hz
Detected average lo-cut frequency: 2.121329e+004 Hz
Maximum probablis boundary frequency: 2.159500e+004 Hz
Coefficient of nonlinearity of a phase: 8.367717e-002
First order smothness: 8.226155e-001
Second order smothness: 7.589555e-001
------------------------------------------------------------
This track looks like MPEG with probability 100%
===========================================

Динамический диапазон

foobar2000 1.2.8 / Dynamic Range Meter 1.1.1
log date: 2016-02-07 18:19:29
--------------------------------------------------------------------------------
Analyzed: SWV / Still
--------------------------------------------------------------------------------
DR Peak RMS Duration Track
--------------------------------------------------------------------------------
DR6 0.00 dB -8.97 dB 3:30 01-Still
DR7 0.00 dB -8.36 dB 3:56 02-MCE [Man Crush Everyday]
DR7 0.00 dB -7.59 dB 3:05 03-On Tonight
DR6 -0.01 dB -7.45 dB 3:41 04-Let's Make Music
DR6 -0.01 dB -7.51 dB 3:34 05-Ain't No Man
DR6 0.00 dB -8.48 dB 3:50 06-Love Song
DR5 0.00 dB -7.25 dB 4:39 07-When Love Didn't Hurt
DR6 0.00 dB -7.60 dB 3:24 08-Miss You
DR7 -0.01 dB -9.13 dB 3:30 09-Leaving You Alone
DR5 0.00 dB -7.06 dB 3:50 10-What We Gonna Do
DR6 0.00 dB -7.40 dB 1:47 11-Right Here
DR7 0.00 dB -7.87 dB 2:10 12-I'm So Into You
DR6 0.00 dB -8.20 dB 7:11 13-Weak
--------------------------------------------------------------------------------
Number of tracks: 13
Official DR value: DR6
Samplerate: 44100 Hz
Channels: 2
Bits per sample: 16
Bitrate: 1005 kbps
Codec: FLAC
================================================================================
http://www.swvonline.com/
http://www.therealswv.com/
http://ru.wikipedia.org/wiki/SWV
Вы не можете начинать темы
Вы не можете отвечать на сообщения
Вы не можете редактировать свои сообщения
Вы не можете удалять свои сообщения
Вы не можете голосовать в опросах
Вы не можете прикреплять файлы к сообщениям
Вы можете скачивать файлы