Regarder un film | Walton Goggins | - Boar 2018 BDRip XviD AC3-EVO

(R&B) [CD] TLC - TLC [Deluxe Edition] - 2017, FLAC (tracks+.cue), lossless 

Цитировать
TLC / TLC [Deluxe Edition]
Жанр: R&B
Носитель: CD
Страна-производитель диска (релиза): EU
Год издания: 2017
Издатель (лейбл): Cooking Vinyl Limited
Номер по каталогу: 040232606632
Страна исполнителя (группы): US
Аудиокодек: FLAC (*.flac)
Тип рипа: tracks+.cue
Битрейт аудио: lossless
Продолжительность: 01:01:59
Источник (релизер): Internet
Наличие сканов в содержимом раздачи: нет
Треклист:
01 No Introduction 3:03
02 Way Back 3:47
03 It’s Sunny 3:23
04 Haters 2:40
05 Perfect Girls 3:05
06 Interlude 1:11
07 Start A Fire 4:03
08 American Gold 3:39
09 Scandalous 3:33
10 Aye MuthaFucka 3:16
11 Joy Ride 4:18
12 Way Back (Extended) 4:26
13 No Scrubs 3:33
14 Creep 4:24
15 Unpretty 4:38
16 Baby Baby Baby 4:58
17 Diggin' On You 4:09

Лог создания рипа

Exact Audio Copy V1.1 from 23. June 2015
EAC extraction logfile from 2. July 2017, 14:32
TLC / TLC (Deluxe Edition)
Used drive : Pioneer BDR-S09XLT Adapter: 0 ID: 0
Read mode : SecureUtilize accurate stream : YesDefeat audio cache : YesMake use of C2 pointers : No
Read offset correction : 6Overread into Lead-In and Lead-Out : NoFill up missing offset samples with silence : YesDelete leading and trailing silent blocks : NoNull samples used in CRC calculations : YesUsed interface : Installed external ASPI interface
Used output format : Internal WAV RoutinesSample format : 44.100 Hz; 16 Bit; Stereo
TOC of the extracted CD
Track | Start | Length | Start sector | End sector --------------------------------------------------------- 1 | 0:00.00 | 3:02.52 | 0 | 13701 2 | 3:02.52 | 3:46.61 | 13702 | 30712 3 | 6:49.38 | 3:23.37 | 30713 | 45974 4 | 10:13.00 | 2:40.30 | 45975 | 58004 5 | 12:53.30 | 3:05.24 | 58005 | 71903 6 | 15:58.54 | 1:11.32 | 71904 | 77260 7 | 17:10.11 | 4:02.74 | 77261 | 95484 8 | 21:13.10 | 3:38.73 | 95485 | 111907 9 | 24:52.08 | 3:32.40 | 111908 | 127847 10 | 28:24.48 | 3:16.11 | 127848 | 142558 11 | 31:40.59 | 4:18.04 | 142559 | 161912 12 | 35:58.63 | 4:26.16 | 161913 | 181878 13 | 40:25.04 | 3:32.57 | 181879 | 197835 14 | 43:57.61 | 4:23.57 | 197836 | 217617 15 | 48:21.43 | 4:38.34 | 217618 | 238501 16 | 53:00.02 | 4:58.17 | 238502 | 260868 17 | 57:58.19 | 4:09.34 | 260869 | 279577
Range status and errors
Selected range
Filename A:\Spots\EAC\TLC - TLC\TLC - TLC (Deluxe Edition).wav
Peak level 100.0 % Extraction speed 7.4 X Range quality 99.9 % Test CRC 3DCC7FE2 Copy CRC 3DCC7FE2 Copy OK
No errors occurred
AccurateRip summary
Track 1 not present in databaseTrack 2 not present in databaseTrack 3 not present in databaseTrack 4 not present in databaseTrack 5 not present in databaseTrack 6 not present in databaseTrack 7 not present in databaseTrack 8 not present in databaseTrack 9 not present in databaseTrack 10 not present in databaseTrack 11 not present in databaseTrack 12 not present in databaseTrack 13 not present in databaseTrack 14 not present in databaseTrack 15 not present in databaseTrack 16 not present in databaseTrack 17 not present in database
None of the tracks are present in the AccurateRip database
End of status report

Содержание индексной карты (.CUE)

REM GENRE "Pop"REM DATE 2017REM DISCID DB0E8F11REM COMMENT "ExactAudioCopy v1.1"PERFORMER "TLC"TITLE "TLC (Deluxe Edition)"FILE "01 No Introduction.flac" WAVE  TRACK 01 AUDIO    TITLE "No Introduction"    PERFORMER "TLC"    FLAGS DCP    INDEX 01 00:00:00FILE "02 Way Back.flac" WAVE  TRACK 02 AUDIO    TITLE "Way Back"    PERFORMER "TLC"    FLAGS DCP    INDEX 01 00:00:00FILE "03 It’s Sunny.flac" WAVE  TRACK 03 AUDIO    TITLE "It’s Sunny"    PERFORMER "TLC"    FLAGS DCP    INDEX 01 00:00:00FILE "04 Haters.flac" WAVE  TRACK 04 AUDIO    TITLE "Haters"    PERFORMER "TLC"    FLAGS DCP    INDEX 01 00:00:00FILE "05 Perfect Girls.flac" WAVE  TRACK 05 AUDIO    TITLE "Perfect Girls"    PERFORMER "TLC"    FLAGS DCP    INDEX 01 00:00:00FILE "06 Interlude.flac" WAVE  TRACK 06 AUDIO    TITLE "Interlude"    PERFORMER "TLC"    FLAGS DCP    INDEX 01 00:00:00FILE "07 Start A Fire.flac" WAVE  TRACK 07 AUDIO    TITLE "Start A Fire"    PERFORMER "TLC"    FLAGS DCP    INDEX 01 00:00:00FILE "08 American Gold.flac" WAVE  TRACK 08 AUDIO    TITLE "American Gold"    PERFORMER "TLC"    FLAGS DCP    INDEX 01 00:00:00FILE "09 Scandalous.flac" WAVE  TRACK 09 AUDIO    TITLE "Scandalous"    PERFORMER "TLC"    FLAGS DCP    INDEX 01 00:00:00FILE "10 Aye MuthaFucka.flac" WAVE  TRACK 10 AUDIO    TITLE "Aye MuthaFucka"    PERFORMER "TLC"    FLAGS DCP    INDEX 01 00:00:00FILE "11 Joy Ride.flac" WAVE  TRACK 11 AUDIO    TITLE "Joy Ride"    PERFORMER "TLC"    FLAGS DCP    INDEX 01 00:00:00FILE "12 Way Back (Extended).flac" WAVE  TRACK 12 AUDIO    TITLE "Way Back (Extended)"    PERFORMER "TLC"    FLAGS DCP    INDEX 01 00:00:00FILE "13 No Scrubs.flac" WAVE  TRACK 13 AUDIO    TITLE "No Scrubs"    PERFORMER "TLC"    FLAGS DCP    INDEX 01 00:00:00FILE "14 Creep.flac" WAVE  TRACK 14 AUDIO    TITLE "Creep"    PERFORMER "TLC"    FLAGS DCP    INDEX 01 00:00:00FILE "15 Unpretty.flac" WAVE  TRACK 15 AUDIO    TITLE "Unpretty"    PERFORMER "TLC"    FLAGS DCP    INDEX 01 00:00:00FILE "16 Baby Baby Baby.flac" WAVE  TRACK 16 AUDIO    TITLE "Baby Baby Baby"    PERFORMER "TLC"    FLAGS DCP    INDEX 01 00:00:00FILE "17 Diggin' On You.flac" WAVE  TRACK 17 AUDIO    TITLE "Diggin' On You"    PERFORMER "TLC"    FLAGS DCP    INDEX 01 00:00:00
Доп. информация: http://en.wikipedia.org/wiki/TLC_(album)

Об исполнителе (группе)

TLC is an American girl group whose original line-up consisted of Tionne "T-Boz" Watkins, Lisa "Left Eye" Lopes and Rozonda "Chilli" Thomas. Formed in Atlanta, Georgia in 1990, the group was very successful during the 1990s despite numerous spats with the law, each other, and the group's record label and management. They scored nine top-ten hits on the Billboard Hot 100, including four number-one singles "Creep", "Waterfalls", "No Scrubs", and "Unpretty". The group also recorded four multi-platinum albums, including CrazySexyCool (1994) which still remains the only album by a female group to receive a diamond certification from the Recording Industry Association of America (RIAA). TLC also became the first R&B group in history to receive Million certification from the Recording Industry Association of Japan (RIAJ) for FanMail (1999).

Об альбоме (сборнике)

TLC is the fifth and final studio album by American group TLC, released on June 30, 2017, by their newly formed label 852 Musiq. TLC has partnered with various distribution companies: Sony Music RED (North America), Liberation Music (Australia), Warner Music Group (Japan), and Cooking Vinyl (rest of world).
The deluxe edition features remastered versions of the singles "No Scrubs", "Creep", "Unpretty", "Baby-Baby-Baby", and "Diggin' on You".
The album debuted at number 38 on the Billboard 200, selling 11,117 album-equivalent units.

Состав

Members: T-Boz, Chilli
Past members: Left Eye, Crystal Jones
Вы не можете начинать темы
Вы не можете отвечать на сообщения
Вы не можете редактировать свои сообщения
Вы не можете удалять свои сообщения
Вы не можете голосовать в опросах
Вы не можете прикреплять файлы к сообщениям
Вы можете скачивать файлы