Español (ES) | Coin Locker Monogatari | Black Book full movie free download

(R&B, Soul, Neosoul, Reggae) [CD] Jordan Rakei - Wallflower - 2017, FLAC (tracks+.cue), lossless 

Цитировать
Jordan Rakei / Wallflower Жанр: R&B, Soul, Neosoul, Reggae
Носитель: CD
Год издания: 2017
Издатель (лейбл): Ninja Tune
Номер по каталогу: ZENCD245
Страна исполнителя (группы): Australia
Аудиокодек: FLAC (*.flac)
Тип рипа: tracks+.cue
Битрейт аудио: lossless
Продолжительность: 00:45:36
Источник (релизер): RED
Наличие сканов в содержимом раздачи: нет
Треклист:
01. Eye To Eye (05:51)
02. May (04:04)
03. Sorceress (03:03)
04. Nerve (03:55)
05. Goodbyes (04:56)
06. Clues Blues (04:12)
07. Chemical Coincidence (03:33)
08. Carnation (03:59)
09. Lucid (04:52)
10. Hiding Place (03:46)
11. Wallflower (feat. Kaya Thomas-Dyke) (03:25)

Лог создания рипа

Exact Audio Copy V1.3 from 2. September 2016
EAC extraction logfile from 22. December 2017, 9:37
Jordan Rakei / Wallflower
Used drive : Optiarc BD ROM BC-5650H Adapter: 1 ID: 1
Read mode : SecureUtilize accurate stream : YesDefeat audio cache : YesMake use of C2 pointers : No
Read offset correction : 48Overread into Lead-In and Lead-Out : NoFill up missing offset samples with silence : YesDelete leading and trailing silent blocks : NoNull samples used in CRC calculations : YesUsed interface : Native Win32 interface for Win NT & 2000Gap handling : Appended to previous track
Used output format : User Defined EncoderSelected bitrate : 1024 kBit/sQuality : HighAdd ID3 tag : NoCommand line compressor : C:\Program Files\flac-1.3.2-win\win32\flac.exeAdditional command line options : -8 -e -p -V -T "ARTIST=%artist%" -T "TITLE=%title%" -T "ALBUM=%albumtitle%" -T "DATE=%year%" -T "TRACKNUMBER=%tracknr%" -T "GENRE=%genre%" -T "PERFORMER=%albuminterpret%" -T "COMPOSER=%composer%" %haslyrics%--tag-from-file=LYRICS="%lyricsfile%"%haslyrics% -T "ALBUMARTIST=%albumartist%" -T "DISCNUMBER=%cdnumber%" -T "TOTALDISCS=%totalcds%" -T "TOTALTRACKS=%numtracks%" -T "COMMENT=%comment%" %source% -o %dest%
TOC of the extracted CD
Track | Start | Length | Start sector | End sector --------------------------------------------------------- 1 | 0:00.00 | 5:51.67 | 0 | 26391 2 | 5:51.67 | 4:04.03 | 26392 | 44694 3 | 9:55.70 | 3:03.61 | 44695 | 58480 4 | 12:59.56 | 3:55.20 | 58481 | 76125 5 | 16:55.01 | 4:56.14 | 76126 | 98339 6 | 21:51.15 | 4:12.68 | 98340 | 117307 7 | 26:04.08 | 3:33.35 | 117308 | 133317 8 | 29:37.43 | 3:59.61 | 133318 | 151303 9 | 33:37.29 | 4:52.03 | 151304 | 173206 10 | 38:29.32 | 3:46.38 | 173207 | 190194 11 | 42:15.70 | 3:25.44 | 190195 | 205613
Track 1
Filename Z:\home\encoding\FLAC\Jordan Rakei - Wallflower (2017) [FLAC] {}\01 - Eye To Eye.wav
Pre-gap length 0:00:02.00
Peak level 96.6 % Extraction speed 9.8 X Track quality 99.9 % Test CRC 53250A04 Copy CRC 53250A04 Track not present in AccurateRip database Copy OK
Track 2
Filename Z:\home\encoding\FLAC\Jordan Rakei - Wallflower (2017) [FLAC] {}\02 - May.wav
Peak level 96.6 % Extraction speed 10.6 X Track quality 99.9 % Test CRC E1C441B5 Copy CRC E1C441B5 Track not present in AccurateRip database Copy OK
Track 3
Filename Z:\home\encoding\FLAC\Jordan Rakei - Wallflower (2017) [FLAC] {}\03 - Sorceress.wav
Peak level 96.6 % Extraction speed 12.0 X Track quality 100.0 % Test CRC E841D303 Copy CRC E841D303 Track not present in AccurateRip database Copy OK
Track 4
Filename Z:\home\encoding\FLAC\Jordan Rakei - Wallflower (2017) [FLAC] {}\04 - Nerve.wav
Peak level 96.6 % Extraction speed 12.9 X Track quality 100.0 % Test CRC 3E5AFBF2 Copy CRC 3E5AFBF2 Track not present in AccurateRip database Copy OK
Track 5
Filename Z:\home\encoding\FLAC\Jordan Rakei - Wallflower (2017) [FLAC] {}\05 - Goodbyes.wav
Peak level 96.6 % Extraction speed 13.9 X Track quality 100.0 % Test CRC 4AADD901 Copy CRC 4AADD901 Track not present in AccurateRip database Copy OK
Track 6
Filename Z:\home\encoding\FLAC\Jordan Rakei - Wallflower (2017) [FLAC] {}\06 - Clues Blues.wav
Peak level 96.6 % Extraction speed 14.5 X Track quality 100.0 % Test CRC 1FEA5CE0 Copy CRC 1FEA5CE0 Track not present in AccurateRip database Copy OK
Track 7
Filename Z:\home\encoding\FLAC\Jordan Rakei - Wallflower (2017) [FLAC] {}\07 - Chemical Coincidence.wav
Peak level 96.6 % Extraction speed 13.5 X Track quality 99.9 % Test CRC 5663787D Copy CRC 5663787D Track not present in AccurateRip database Copy OK
Track 8
Filename Z:\home\encoding\FLAC\Jordan Rakei - Wallflower (2017) [FLAC] {}\08 - Carnation.wav
Peak level 96.6 % Extraction speed 15.5 X Track quality 100.0 % Test CRC B1D947BE Copy CRC B1D947BE Track not present in AccurateRip database Copy OK
Track 9
Filename Z:\home\encoding\FLAC\Jordan Rakei - Wallflower (2017) [FLAC] {}\09 - Lucid.wav
Peak level 96.6 % Extraction speed 16.3 X Track quality 100.0 % Test CRC 25D84088 Copy CRC 25D84088 Track not present in AccurateRip database Copy OK
Track 10
Filename Z:\home\encoding\FLAC\Jordan Rakei - Wallflower (2017) [FLAC] {}\10 - Hiding Place.wav
Peak level 96.6 % Extraction speed 16.4 X Track quality 100.0 % Test CRC E432A3D9 Copy CRC E432A3D9 Track not present in AccurateRip database Copy OK
Track 11
Filename Z:\home\encoding\FLAC\Jordan Rakei - Wallflower (2017) [FLAC] {}\11 - Wallflower (feat. Kaya Thomas-Dyke).wav
Peak level 96.6 % Extraction speed 16.9 X Track quality 100.0 % Test CRC 524B3A68 Copy CRC 524B3A68 Track not present in AccurateRip database Copy OK
None of the tracks are present in the AccurateRip database
No errors occurred
End of status report
==== Log checksum 9B635B8A59E9F03C691457C7F0616C5427D86EA3AF344DAA842D9819F60BE966 ====

Содержание индексной карты (.CUE)

REM GENRE FunkREM DATE 2017REM DISCID 910AB50BREM COMMENT "ExactAudioCopy v1.3"CATALOG 5054429119640PERFORMER "Jordan Rakei"TITLE "Wallflower"REM COMPOSER ""FILE "01 - Eye To Eye.wav" WAVE  TRACK 01 AUDIO    TITLE "Eye To Eye"    PERFORMER "Jordan Rakei"    REM COMPOSER ""    INDEX 01 00:00:00FILE "02 - May.wav" WAVE  TRACK 02 AUDIO    TITLE "May"    PERFORMER "Jordan Rakei"    REM COMPOSER ""    INDEX 01 00:00:00FILE "03 - Sorceress.wav" WAVE  TRACK 03 AUDIO    TITLE "Sorceress"    PERFORMER "Jordan Rakei"    REM COMPOSER ""    INDEX 01 00:00:00FILE "04 - Nerve.wav" WAVE  TRACK 04 AUDIO    TITLE "Nerve"    PERFORMER "Jordan Rakei"    REM COMPOSER ""    INDEX 01 00:00:00FILE "05 - Goodbyes.wav" WAVE  TRACK 05 AUDIO    TITLE "Goodbyes"    PERFORMER "Jordan Rakei"    REM COMPOSER ""    INDEX 01 00:00:00FILE "06 - Clues Blues.wav" WAVE  TRACK 06 AUDIO    TITLE "Clues Blues"    PERFORMER "Jordan Rakei"    REM COMPOSER ""    INDEX 01 00:00:00FILE "07 - Chemical Coincidence.wav" WAVE  TRACK 07 AUDIO    TITLE "Chemical Coincidence"    PERFORMER "Jordan Rakei"    REM COMPOSER ""    INDEX 01 00:00:00FILE "08 - Carnation.wav" WAVE  TRACK 08 AUDIO    TITLE "Carnation"    PERFORMER "Jordan Rakei"    REM COMPOSER ""    INDEX 01 00:00:00FILE "09 - Lucid.wav" WAVE  TRACK 09 AUDIO    TITLE "Lucid"    PERFORMER "Jordan Rakei"    REM COMPOSER ""    FLAGS DCP    INDEX 01 00:00:00FILE "10 - Hiding Place.wav" WAVE  TRACK 10 AUDIO    TITLE "Hiding Place"    PERFORMER "Jordan Rakei"    REM COMPOSER ""    INDEX 01 00:00:00FILE "11 - Wallflower (feat. Kaya Thomas-Dyke).wav" WAVE  TRACK 11 AUDIO    TITLE "Wallflower (feat. Kaya Thomas-Dyke)"    PERFORMER "Jordan Rakei"    REM COMPOSER ""    INDEX 01 00:00:00

Лог проверки качества

-----------------------
DON'T MODIFY THIS FILE
-----------------------
PERFORMER: auCDtect Task Manager, ver. 1.6.0 RC1 build 1.6.0.1Copyright (c) 2008-2010 y-soft. All rights reservedhttp://y-soft.org
ANALYZER: auCDtect: CD records authenticity detector, version 0.8.2Copyright (c) 2004 Oleg Berngardt. All rights reserved.Copyright (c) 2004 Alexander Djourik. All rights reserved.
FILE: 11 - Wallflower (feat. Kaya Thomas-Dyke).flac Size: 21352312 Hash: 4EB1C8269DE2D51267284B2F16E6E31B Accuracy: -m0 Conclusion: CDDA 100% Signature: 966AA7EE42A240186E79C058D021661BB8FB7DB2FILE: 10 - Hiding Place.flac Size: 23192059 Hash: 7938AFE42BF5F7FD9A3AAD49054B7E53 Accuracy: -m0 Conclusion: CDDA 100% Signature: 4018F9FC8D43C63F9DCB7880C067EAA321C1AD02FILE: 09 - Lucid.flac Size: 30839956 Hash: A0F0EE92B61960CE38A9965655FF253D Accuracy: -m0 Conclusion: CDDA 99% Signature: 99DDE46BBC460AFD0B42799D41139FCB0A5FA4B9FILE: 08 - Carnation.flac Size: 28749645 Hash: 68E3353C534B3A0A8A8A0C39C8ACDA8A Accuracy: -m0 Conclusion: CDDA 100% Signature: 135C19CA5290C948A0C4F075A8A41FB2F81FC176FILE: 07 - Chemical Coincidence.flac Size: 24831636 Hash: 30E04E784C910DC2D99D0FAA020965AD Accuracy: -m0 Conclusion: CDDA 100% Signature: 906D44C72D0417CCEA5C9D162B86F9A271729D53FILE: 06 - Clues Blues.flac Size: 26467664 Hash: 9554DE7B85B93DB5AF3D1E500777B166 Accuracy: -m0 Conclusion: CDDA 100% Signature: F106CA8BF867004FBCAA25CD524E9C1255FF5A7EFILE: 05 - Goodbyes.flac Size: 32637017 Hash: 2E4F170CAE5BCA1A412CFE97C032FBD0 Accuracy: -m0 Conclusion: CDDA 99% Signature: F8378ECE6364E3EACEDCCA706B3C3AB3C2F7C3A5FILE: 04 - Nerve.flac Size: 27817356 Hash: D38CBB8E0AF96244465117B6DBEE676B Accuracy: -m0 Conclusion: CDDA 99% Signature: 594A29DE81AB92A12D20499CFF2D18D8CCC5976CFILE: 03 - Sorceress.flac Size: 21183688 Hash: 66053BBADA518E588E9067F581DC2F07 Accuracy: -m0 Conclusion: CDDA 100% Signature: 54E522B5EA8EEB5560C138460CFC25B50E9A1512FILE: 02 - May.flac Size: 26394809 Hash: BC11FB06960524E0205464082A3ABC28 Accuracy: -m0 Conclusion: CDDA 100% Signature: 6DEF5FCDE64A74DC88F5773EB445BD33271222CDFILE: 01 - Eye To Eye.flac Size: 38654352 Hash: 952BAD539264C30C2C0764F9EDB7C573 Accuracy: -m0 Conclusion: CDDA 100% Signature: 96A84DE10C86EC936D0AF2E750A5E5F6B84D4B4D
Вы не можете начинать темы
Вы не можете отвечать на сообщения
Вы не можете редактировать свои сообщения
Вы не можете удалять свои сообщения
Вы не можете голосовать в опросах
Вы не можете прикреплять файлы к сообщениям
Вы можете скачивать файлы