Amoli (2018) 1080p WEB_DL x264 ESubs [Multi Auds]-[Hindi+Telugu+Tamil+Eng | Dark Crimes | Christina Hendricks

(Soul, R&B) [CD] Tamar Braxton - Bluebird of Happiness - 2017, FLAC (tracks+.cue), lossless 

Цитировать
Tamar Braxton / Bluebird of Happiness
Жанр: Soul, R&B
Носитель: CD
Страна-производитель диска (релиза): USA
Год издания: 2017
Издатель (лейбл): LoganLand Records
Номер по каталогу: CD-8953
Страна исполнителя (группы): USA
Аудиокодек: FLAC (*.flac)
Тип рипа: tracks+.cue
Битрейт аудио: lossless
Продолжительность: 00:40:59
Источник (релизер): Red
Наличие сканов в содержимом раздачи: нет
Треклист:

01. My Forever [03:31]
02. Wanna Love You Boy [02:52]
03. Run Run [02:40]
04. Hol' Up (feat Yo Gotti) [03:59]
05. The Makings of You [05:02]
06. Heart in My Hands [03:16]
07. Blind [05:01]
08. My Man [04:12]
09. Pick Me Up [02:46]
10. How I Feel [03:46]
11. Empty Boxes [03:49]

Лог создания рипа

X Lossless Decoder version 20161007 (149.3)
XLD extraction logfile from 2018-01-07 07:19:30 -0700
Tamar Braxton / Bluebird of Happiness
Used drive : OPTIARC DVD RW AD-5970H (revision 3AP9)Media type : Pressed CD
Ripper mode : XLD Secure RipperDisable audio cache : OK for the drive with a cache less than 1375KiBMake use of C2 pointers : NORead offset correction : 48Max retry count : 20Gap status : Analyzed, Appended (except HTOA)
TOC of the extracted CD Track | Start | Length | Start sector | End sector --------------------------------------------------------- 1 | 00:00:00 | 03:31:51 | 0 | 15875 2 | 03:31:51 | 02:52:11 | 15876 | 28786 3 | 06:23:62 | 02:40:57 | 28787 | 40843 4 | 09:04:44 | 03:59:38 | 40844 | 58806 5 | 13:04:07 | 05:02:43 | 58807 | 81499 6 | 18:06:50 | 03:16:00 | 81500 | 96199 7 | 21:22:50 | 05:01:25 | 96200 | 118799 8 | 26:24:00 | 04:12:13 | 118800 | 137712 9 | 30:36:13 | 02:46:46 | 137713 | 150208 10 | 33:22:59 | 03:46:53 | 150209 | 167211 11 | 37:09:37 | 03:49:25 | 167212 | 184411
AccurateRip Summary (DiscID: 00107c28-0090af7c-92099a0b) Track 01 : OK (v2, confidence 1/1) Track 02 : OK (v2, confidence 1/1) Track 03 : OK (v2, confidence 1/1) Track 04 : OK (v2, confidence 1/1) Track 05 : OK (v2, confidence 1/1) Track 06 : OK (v2, confidence 1/1) Track 07 : OK (v2, confidence 1/1) Track 08 : NG (total 1 submission) Track 09 : OK (v2, confidence 1/1) Track 10 : OK (v2, confidence 1/1) Track 11 : OK (v2, confidence 1/1) ->10 tracks accurately ripped, 1 track not
All Tracks Album gain : -8.68 dB Peak : 1.000000 Statistics Read error : 0 Jitter error (maybe fixed) : 0 Retry sector count : 0 Damaged sector count : 0
Track 01 Filename : /Volumes/External Hard Drive/Music/Tamar Braxton - Bluebird of Happiness (2017) [FLAC]/01 My Forever.flac Pre-gap length : 00:02:00
Track gain : -9.18 dB Peak : 1.000000 CRC32 hash (test run) : D786221D CRC32 hash : D786221D CRC32 hash (skip zero) : E96F2FD1 AccurateRip v1 signature : 3F348740 AccurateRip v2 signature : 927A4493 ->Accurately ripped (v2, confidence 1/1) Statistics Read error : 0 Jitter error (maybe fixed) : 0 Retry sector count : 0 Damaged sector count : 0
Track 02 Filename : /Volumes/External Hard Drive/Music/Tamar Braxton - Bluebird of Happiness (2017) [FLAC]/02 Wanna Love You Boy.flac
Track gain : -7.47 dB Peak : 1.000000 CRC32 hash (test run) : BE69E081 CRC32 hash : BE69E081 CRC32 hash (skip zero) : F85B9DC9 AccurateRip v1 signature : ED16D06F AccurateRip v2 signature : 208D4E61 ->Accurately ripped (v2, confidence 1/1) Statistics Read error : 0 Jitter error (maybe fixed) : 0 Retry sector count : 0 Damaged sector count : 0
Track 03 Filename : /Volumes/External Hard Drive/Music/Tamar Braxton - Bluebird of Happiness (2017) [FLAC]/03 Run Run.flac
Track gain : -8.91 dB Peak : 1.000000 CRC32 hash (test run) : 7904D64F CRC32 hash : 7904D64F CRC32 hash (skip zero) : 7883647A AccurateRip v1 signature : 9BB342BE AccurateRip v2 signature : E7894BF9 ->Accurately ripped (v2, confidence 1/1) Statistics Read error : 0 Jitter error (maybe fixed) : 0 Retry sector count : 0 Damaged sector count : 0
Track 04 Filename : /Volumes/External Hard Drive/Music/Tamar Braxton - Bluebird of Happiness (2017) [FLAC]/04 Hol' Up (feat Yo Gotti).flac
Track gain : -9.26 dB Peak : 1.000000 CRC32 hash (test run) : 5F3D2B5F CRC32 hash : 5F3D2B5F CRC32 hash (skip zero) : 8EA49540 AccurateRip v1 signature : 06303951 AccurateRip v2 signature : 73006928 ->Accurately ripped (v2, confidence 1/1) Statistics Read error : 0 Jitter error (maybe fixed) : 0 Retry sector count : 0 Damaged sector count : 0
Track 05 Filename : /Volumes/External Hard Drive/Music/Tamar Braxton - Bluebird of Happiness (2017) [FLAC]/05 The Makings of You.flac
Track gain : -7.94 dB Peak : 1.000000 CRC32 hash (test run) : B269564D CRC32 hash : B269564D CRC32 hash (skip zero) : C1208830 AccurateRip v1 signature : 81FAE941 AccurateRip v2 signature : C9F01E7D ->Accurately ripped (v2, confidence 1/1) Statistics Read error : 0 Jitter error (maybe fixed) : 0 Retry sector count : 0 Damaged sector count : 0
Track 06 Filename : /Volumes/External Hard Drive/Music/Tamar Braxton - Bluebird of Happiness (2017) [FLAC]/06 Heart in My Hands.flac
Track gain : -7.55 dB Peak : 0.999969 CRC32 hash (test run) : 53DC6E10 CRC32 hash : 53DC6E10 CRC32 hash (skip zero) : 3930CF19 AccurateRip v1 signature : 8B010173 AccurateRip v2 signature : 57320E3B ->Accurately ripped (v2, confidence 1/1) Statistics Read error : 0 Jitter error (maybe fixed) : 0 Retry sector count : 0 Damaged sector count : 0
Track 07 Filename : /Volumes/External Hard Drive/Music/Tamar Braxton - Bluebird of Happiness (2017) [FLAC]/07 Blind.flac
Track gain : -9.30 dB Peak : 1.000000 CRC32 hash (test run) : 4A009901 CRC32 hash : 4A009901 CRC32 hash (skip zero) : 24CF6667 AccurateRip v1 signature : DE0450F6 AccurateRip v2 signature : 19729B02 ->Accurately ripped (v2, confidence 1/1) Statistics Read error : 0 Jitter error (maybe fixed) : 0 Retry sector count : 0 Damaged sector count : 0
Track 08 Filename : /Volumes/External Hard Drive/Music/Tamar Braxton - Bluebird of Happiness (2017) [FLAC]/08 My Man.flac
Track gain : -8.31 dB Peak : 1.000000 CRC32 hash (test run) : 4EBEAD0D CRC32 hash : 4EBEAD0D CRC32 hash (skip zero) : 58981EC1 AccurateRip v1 signature : AF2F5FAB AccurateRip v2 signature : 78F4611C ->Rip may not be accurate (total 1 submission). Statistics Read error : 0 Jitter error (maybe fixed) : 0 Retry sector count : 0 Damaged sector count : 0
Track 09 Filename : /Volumes/External Hard Drive/Music/Tamar Braxton - Bluebird of Happiness (2017) [FLAC]/09 Pick Me Up.flac
Track gain : -10.09 dB Peak : 1.000000 CRC32 hash (test run) : 468B5503 CRC32 hash : 468B5503 CRC32 hash (skip zero) : 230D4DE1 AccurateRip v1 signature : CDF09C1C AccurateRip v2 signature : F1310773 ->Accurately ripped (v2, confidence 1/1) Statistics Read error : 0 Jitter error (maybe fixed) : 0 Retry sector count : 0 Damaged sector count : 0
Track 10 Filename : /Volumes/External Hard Drive/Music/Tamar Braxton - Bluebird of Happiness (2017) [FLAC]/10 How I Feel.flac
Track gain : -6.63 dB Peak : 1.000000 CRC32 hash (test run) : 47790C3F CRC32 hash : 47790C3F CRC32 hash (skip zero) : 56B51036 AccurateRip v1 signature : 61A456EF AccurateRip v2 signature : 41252349 ->Accurately ripped (v2, confidence 1/1) Statistics Read error : 0 Jitter error (maybe fixed) : 0 Retry sector count : 0 Damaged sector count : 0
Track 11 Filename : /Volumes/External Hard Drive/Music/Tamar Braxton - Bluebird of Happiness (2017) [FLAC]/11 Empty Boxes.flac
Track gain : -6.68 dB Peak : 0.999969 CRC32 hash (test run) : 9F53D637 CRC32 hash : 9F53D637 CRC32 hash (skip zero) : BB430DFF AccurateRip v1 signature : 59E780E5 AccurateRip v2 signature : 51F82A4B ->Accurately ripped (v2, confidence 1/1) Statistics Read error : 0 Jitter error (maybe fixed) : 0 Retry sector count : 0 Damaged sector count : 0
No errors occurred
End of status report
-----BEGIN XLD SIGNATURE-----aaew58JH6OGREC16Y1X1IAvCjgC6vyPGmuyyGyfXWp56T4FzuXxrX2Lod0Lo5yXaOiXZhT5Nn5GoCTBWczH7bjDJYJmmRGtKjZ2mTY4-----END XLD SIGNATURE-----

Содержание индексной карты (.CUE)

TITLE "Bluebird of Happiness"PERFORMER "Tamar Braxton"CATALOG 0099923895329REM DATE "2017"REM DISCID 92099A0BREM REPLAYGAIN_ALBUM_GAIN -8.68 dBREM REPLAYGAIN_ALBUM_PEAK 1.000000FILE "01 My Forever.flac" WAVE  TRACK 01 AUDIO    TITLE "My Forever"    ISRC USKO11700792    REM REPLAYGAIN_TRACK_GAIN -9.18 dB    REM REPLAYGAIN_TRACK_PEAK 1.000000    INDEX 01 00:00:00FILE "02 Wanna Love You Boy.flac" WAVE  TRACK 02 AUDIO    TITLE "Wanna Love You Boy"    ISRC USKO11700793    REM REPLAYGAIN_TRACK_GAIN -7.47 dB    REM REPLAYGAIN_TRACK_PEAK 1.000000    INDEX 01 00:00:00FILE "03 Run Run.flac" WAVE  TRACK 03 AUDIO    TITLE "Run Run"    ISRC USKO11700794    REM REPLAYGAIN_TRACK_GAIN -8.91 dB    REM REPLAYGAIN_TRACK_PEAK 1.000000    INDEX 01 00:00:00FILE "04 Hol' Up (feat Yo Gotti).flac" WAVE  TRACK 04 AUDIO    TITLE "Hol' Up (feat Yo Gotti)"    ISRC USKO11700795    REM REPLAYGAIN_TRACK_GAIN -9.26 dB    REM REPLAYGAIN_TRACK_PEAK 1.000000    INDEX 01 00:00:00FILE "05 The Makings of You.flac" WAVE  TRACK 05 AUDIO    TITLE "The Makings of You"    ISRC USKO11700796    REM REPLAYGAIN_TRACK_GAIN -7.94 dB    REM REPLAYGAIN_TRACK_PEAK 1.000000    INDEX 01 00:00:00FILE "06 Heart in My Hands.flac" WAVE  TRACK 06 AUDIO    TITLE "Heart in My Hands"    ISRC USKO11700797    REM REPLAYGAIN_TRACK_GAIN -7.55 dB    REM REPLAYGAIN_TRACK_PEAK 0.999969    INDEX 01 00:00:00FILE "07 Blind.flac" WAVE  TRACK 07 AUDIO    TITLE "Blind"    ISRC USKO11700798    REM REPLAYGAIN_TRACK_GAIN -9.30 dB    REM REPLAYGAIN_TRACK_PEAK 1.000000    INDEX 01 00:00:00FILE "08 My Man.flac" WAVE  TRACK 08 AUDIO    TITLE "My Man"    ISRC USKO11700411    REM REPLAYGAIN_TRACK_GAIN -8.31 dB    REM REPLAYGAIN_TRACK_PEAK 1.000000    INDEX 01 00:00:00FILE "09 Pick Me Up.flac" WAVE  TRACK 09 AUDIO    TITLE "Pick Me Up"    ISRC USKO11700799    REM REPLAYGAIN_TRACK_GAIN -10.09 dB    REM REPLAYGAIN_TRACK_PEAK 1.000000    INDEX 01 00:00:00FILE "10 How I Feel.flac" WAVE  TRACK 10 AUDIO    TITLE "How I Feel"    ISRC USKO11700800    REM REPLAYGAIN_TRACK_GAIN -6.63 dB    REM REPLAYGAIN_TRACK_PEAK 1.000000    INDEX 01 00:00:00FILE "11 Empty Boxes.flac" WAVE  TRACK 11 AUDIO    TITLE "Empty Boxes"    ISRC USKO11700801    REM REPLAYGAIN_TRACK_GAIN -6.68 dB    REM REPLAYGAIN_TRACK_PEAK 0.999969    INDEX 01 00:00:00
Вы не можете начинать темы
Вы не можете отвечать на сообщения
Вы не можете редактировать свои сообщения
Вы не можете удалять свои сообщения
Вы не можете голосовать в опросах
Вы не можете прикреплять файлы к сообщениям
Вы можете скачивать файлы