Hercules | The Rolling Girls | Chaika, die Sargprinzessin

(Classical) Bach - The Complete Keyboard Works - Zuzana Ruzickova - 2016, FLAC (image+.cue) lossless 

Цитировать
Bach - The Complete Keyboard Works - Zuzana Ruzickova
Жанр: Classical
Страна-производитель диска: France
Год издания диска: 2016
Издатель (лейбл): Erato
Дата записи: 1965-1973
Аудиокодек: FLAC
Тип рипа: image+.cue
Битрейт аудио: lossless
Продолжительность: 23:11:09
Источник: собственный рип
Наличие сканов в содержимом раздачи: да
Треклист:
Johann Sebastian Bach
The Complete Keyboard Works

CD01-CD04 The Well-Tempered Clavier

CD01
The Well-Tempered Clavier, Book I - Part I
[1]-[24] Preludes & Fugues, BWV 846 - BWV 857
CD02
The Well-Tempered Clavier, Book I - Part II
[1]-[24] Preludes & Fugues, BWV 858 - BWV 869
CD03
The Well-Tempered Clavier, Book II - Part I
[1]-[26] Preludes & Fugues, BWV 870 - BWV 882
CD04
The Well-Tempered Clavier, Book II - Part II
[1]-[24] Preludes & Fugues, BWV 883- BWV 893

CD05 Goldberg Variations, BWV 988

[1]-[32] Goldberg Variations, BWV 988

CD06 Inventions & Sinfonias

[1]-[30] Inventions & Sinfonias, BWV 772 - BWV 801
[31]-[35] Suite in B flat major, BWV 821
[36] Fantasia in C minor, BWV 906

CD07-CD08 French Suites

CD07
[1]-[5] French Suite No.1 in D minor, BWV 812
[6]-[11] French Suite No.2 in C minor, BWV 813
[12]-[17] French Suite No.3 in B minor, BWV 814
[18]-[23] French Suite No.4 in E flat major, BWV 815
CD08
[1]-[7] French Suite No.5 in G major, BWV 816
[8]-[15] French Suite No.6 in E major, BWV 817
[16]-[17] Chromatic Fantasia and Fugue in D minor, BWV 903
[18]-[20] Italian Concerto in F major, BWV 971

CD09-CD10 English Suites

CD09
[1]-[9] English Suite No.1 in A major, BWV 806
[10]-[15] English Suite No.2 in A minor, BWV 807
[16]-[21] English Suite No.3 in G minor, BWV 808
CD10
[1]-[6] English Suite No.4 in F major, BWV 809
[7]-[12] English Suite No.5 in E minor, BWV 810
[13]-[18] English Suite No.6 in D minor, BWV 811

CD11-CD12 Partitas

CD11
[1]-[6] Partita No.1 in B flat major, BWV 825
[7]-[13] Partita No.5 in G major, BWV 829
[14]-[20] Partita No.6 in E minor, BWV 830
CD12
[1]-[6] Partita No.2 in C minor, BWV 826
[7]-[13] Partita No.3 in A minor, BWV 827
[14]-[20] Partita No.4 in D major, BWV 828

CD13 Toccatas

[1]-[7] Toccatas, BWV 910 - BWV 916

CD14

[1]-[11] Little Preludes, BWV 933 - BWV 943
[12] Prelude in C minor, BWV 999
[13] Prelude in G major, BWV 902
[14] Prelude in G major, BWV 902a
[15] Prelude in F major, BWV 901
[16]-[17] Prelude & Fughetta in E minor, BWV 900
[18] Applicatio in C major, BWV 994
[19]-[25] Little Preludes from Clavier-Büchlein for Wilhelm Friedemann Bach, BWV 924 - BWV 931
[26]-[28] Three Minuets from Clavier-Büchlein for Wilhelm Friedemann Bach, BWV 941 - BWV 943
[29] Scherzo in D minor, BWV 844
[30]-[35] Suite in A minor, BWV 818a
[36]-[37] Suite movements, BWV 818
[38] Prelude [Minuet-Trio] in G minor, BWV 929
[39] Courante in G major, BWV 840
[40] Gavotte II, BWV 815a (alternative for BWV 815)
[41] Menuet II, BWV 813a (alternative for BWV 813)

CD15

[1]-[4] Duetti, BWV 802 - BWV 805
[5] Capriccio in E major, BWV 993
[6]-[11] Capriccio sopra la lontananza del suo fratello dilettissimo in B flat major, BWV 992
[12]-[19] Overture in the French style in B minor, BWV 831
[20]-[25] Suite in E flat major, BWV 819

CD16

[1]-[11] Aria variata alla maniera italiana in A minor, BWV 989
[12]-[13] Fantasia & Fugue in A minor, BWV 944
[14] Fugue in B flat major, BWV 955
[15] Fugue in A minor, BWV 958
[16] Fugue in A minor, BWV 959
[17]-[19] Sonata in D major, BWV 963
[20] Fugue in A major, BWV 896
[21]-[22] Prelude and Fugue in A minor, BWV 894
[23] Fugue in E minor, BWV 962
[24]-[25] Fantasia & Fugue in A minor, BWV 904

CD17 Harpsichord Concertos

[1]-[3] Harpsichord Concerto No.1 in D major, BWV 972 (after L'estro armonico Op.3 No.9 by Vivaldi)
[4]-[6] Harpsichord Concerto No.2 in G major, BWV 973 (after Concerti a cinque stromenti Op.7 No.2 by Vivaldi)
[7]-[9] Harpsichord Concerto No.4 in G minor, BWV 975 (after La stravaganza Op.4 No.6 by Vivaldi)
[10]-[12] Harpsichord Concerto No.5 in C major, BWV 976 (after L'estro armonico Op.3 No.12 by Vivaldi)
[13]-[15] Harpsichord Concerto No.9 in G major, BWV 980 (after La stravaganza Op.4 No.1 by Vivaldi)

CD18

[1]-[4] Sonata for Cello and Harpsichord No.1 in G major, BWV 1027
[5]-[8] Sonata for Cello and Harpsichord No.2 in D major, BWV 1028
[9]-[11] Sonata for Cello and Harpsichord No.3 in G minor, BWV 1029
[12]-[15] Sonata for Violin and Harpsichord in B minor, BWV 1014
[16]-[19] Sonata for Violin and Harpsichord in A major, BWV 1015
Pierre Fournier cello ([1]-[11])
Josef Suk violin ([12]-[19])

CD19

[1]-[4] Sonata for Violin and Harpsichord in E major, BWV 1016
[5]-[8] Sonata for Violin and Harpsichord in C minor, BWV 1017
[9]-[12] Sonata for Violin and Harpsichord in F minor, BWV 1018
[13]-[17] Sonata for Violin and Harpsichord in G major, BWV 1019
Josef Suk violin

CD20

[1]-[3] Concerto for Flute, Violin, Harpsichord and String Orchestra in A minor, BWV 1044
[4]-[6] Brandenburg Concerto No.5 for Flute, Violin, Harpsichord, Strings and Continuo in D major, BWV 1050
Jean-Pierre Rampal flute
Josef Suk violin
Prague Soloists
Eduard Fischer
conductor
Исполнители:
Zuzana Růžičková harpsichord

Лог создания рипа: CD01

Exact Audio Copy V1.1 from 23. June 2015
EAC extraction logfile from 20. April 2017, 21:53
Zuzana Ruzickova / Bach - The Complete Keyboard Works - CD01 - The Well-Tempered Clavier I
Used drive : PLDS DVD-RW DU8A6SH Adapter: 1 ID: 0
Read mode : SecureUtilize accurate stream : YesDefeat audio cache : YesMake use of C2 pointers : No
Read offset correction : 6Overread into Lead-In and Lead-Out : NoFill up missing offset samples with silence : YesDelete leading and trailing silent blocks : NoNull samples used in CRC calculations : YesUsed interface : Native Win32 interface for Win NT & 2000
Used output format : User Defined EncoderSelected bitrate : 128 kBit/sQuality : HighAdd ID3 tag : NoCommand line compressor : C:\Program Files (x86)\Exact Audio Copy\Flac\flac.exeAdditional command line options : -V -8 -T "Date=%year%" -T "Genre=%genre%" %source%
TOC of the extracted CD
Track | Start | Length | Start sector | End sector --------------------------------------------------------- 1 | 0:00.00 | 2:08.15 | 0 | 9614 2 | 2:08.15 | 1:52.08 | 9615 | 18022 3 | 4:00.23 | 1:46.60 | 18023 | 26032 4 | 5:47.08 | 1:44.16 | 26033 | 33848 5 | 7:31.24 | 1:25.47 | 33849 | 40270 6 | 8:56.71 | 2:36.54 | 40271 | 52024 7 | 11:33.50 | 3:14.48 | 52025 | 66622 8 | 14:48.23 | 4:27.08 | 66623 | 86655 9 | 19:15.31 | 1:18.08 | 86656 | 92513 10 | 20:33.39 | 2:16.09 | 92514 | 102722 11 | 22:49.48 | 1:34.39 | 102723 | 109811 12 | 24:24.12 | 1:56.52 | 109812 | 118563 13 | 26:20.64 | 4:23.53 | 118564 | 138341 14 | 30:44.42 | 2:15.64 | 138342 | 148530 15 | 33:00.31 | 4:22.26 | 148531 | 168206 16 | 37:22.57 | 6:16.36 | 168207 | 196442 17 | 43:39.18 | 1:44.47 | 196443 | 204289 18 | 45:23.65 | 1:23.71 | 204290 | 210585 19 | 46:47.61 | 2:44.51 | 210586 | 222936 20 | 49:32.37 | 1:46.57 | 222937 | 230943 21 | 51:19.19 | 1:11.56 | 230944 | 236324 22 | 52:31.00 | 1:27.10 | 236325 | 242859 23 | 53:58.10 | 2:00.11 | 242860 | 251870 24 | 55:58.21 | 4:16.50 | 251871 | 271120
Range status and errors
Selected range
Filename C:\temp\Bach - The Complete Keyboard Works - Ruzickova\CD01\Bach - The Complete Keyboard Works - CD01.wav
Peak level 38.8 % Extraction speed 3.6 X Range quality 100.0 % Test CRC 096BF9F3 Copy CRC 096BF9F3 Copy OK
No errors occurred
AccurateRip summary
Track 1 accurately ripped (confidence 4) [380432D2] (AR v2)Track 2 accurately ripped (confidence 4) [81D971F0] (AR v2)Track 3 accurately ripped (confidence 4) [FD158072] (AR v2)Track 4 accurately ripped (confidence 4) [437F26ED] (AR v2)Track 5 accurately ripped (confidence 4) [94EC27D7] (AR v2)Track 6 accurately ripped (confidence 4) [FDC18685] (AR v2)Track 7 accurately ripped (confidence 4) [1F857303] (AR v2)Track 8 accurately ripped (confidence 4) [3D7D39C3] (AR v2)Track 9 accurately ripped (confidence 4) [1A06AE0B] (AR v2)Track 10 accurately ripped (confidence 4) [0682398F] (AR v2)Track 11 accurately ripped (confidence 4) [16026EDD] (AR v2)Track 12 accurately ripped (confidence 4) [30C24DDD] (AR v2)Track 13 accurately ripped (confidence 4) [12405DF8] (AR v2)Track 14 accurately ripped (confidence 4) [7DEA512B] (AR v2)Track 15 accurately ripped (confidence 4) [1FAB38FC] (AR v2)Track 16 accurately ripped (confidence 4) [3F3D1042] (AR v2)Track 17 accurately ripped (confidence 4) [F0DAAF53] (AR v2)Track 18 accurately ripped (confidence 4) [7CE5E157] (AR v2)Track 19 accurately ripped (confidence 4) [DB805251] (AR v2)Track 20 accurately ripped (confidence 4) [D4FBE9AC] (AR v2)Track 21 accurately ripped (confidence 4) [2DB24E34] (AR v2)Track 22 accurately ripped (confidence 4) [959422D2] (AR v2)Track 23 accurately ripped (confidence 4) [A6037DFE] (AR v2)Track 24 accurately ripped (confidence 4) [7BE80FA7] (AR v2)
All tracks accurately ripped
End of status report
==== Log checksum DA7F6D46231404C29D6E6D9A35FE3295E7467001CE7442B4B714EE434EF29AD9 ====

Лог создания рипа: CD02

Exact Audio Copy V1.1 from 23. June 2015
EAC extraction logfile from 20. April 2017, 22:38
Zuzana Ruzickova / Bach - The Complete Keyboard Works - CD02 - The Well-Tempered Clavier I
Used drive : PLDS DVD-RW DU8A6SH Adapter: 1 ID: 0
Read mode : SecureUtilize accurate stream : YesDefeat audio cache : YesMake use of C2 pointers : No
Read offset correction : 6Overread into Lead-In and Lead-Out : NoFill up missing offset samples with silence : YesDelete leading and trailing silent blocks : NoNull samples used in CRC calculations : YesUsed interface : Native Win32 interface for Win NT & 2000
Used output format : User Defined EncoderSelected bitrate : 128 kBit/sQuality : HighAdd ID3 tag : NoCommand line compressor : C:\Program Files (x86)\Exact Audio Copy\Flac\flac.exeAdditional command line options : -V -8 -T "Date=%year%" -T "Genre=%genre%" %source%
TOC of the extracted CD
Track | Start | Length | Start sector | End sector --------------------------------------------------------- 1 | 0:00.00 | 1:40.66 | 0 | 7565 2 | 1:40.66 | 2:12.43 | 7566 | 17508 3 | 3:53.34 | 1:14.60 | 17509 | 23118 4 | 5:08.19 | 4:43.28 | 23119 | 44371 5 | 9:51.47 | 1:03.61 | 44372 | 49157 6 | 10:55.33 | 3:16.70 | 49158 | 63927 7 | 14:12.28 | 2:17.48 | 63928 | 74250 8 | 16:30.01 | 2:24.73 | 74251 | 85123 9 | 18:54.74 | 1:35.10 | 85124 | 92258 10 | 20:30.09 | 2:23.61 | 92259 | 103044 11 | 22:53.70 | 1:51.01 | 103045 | 111370 12 | 24:44.71 | 3:33.41 | 111371 | 127386 13 | 28:18.37 | 1:30.74 | 127387 | 134210 14 | 29:49.36 | 3:16.40 | 134211 | 148950 15 | 33:06.01 | 1:29.20 | 148951 | 155645 16 | 34:35.21 | 4:44.62 | 155646 | 177007 17 | 39:20.08 | 1:30.23 | 177008 | 183780 18 | 40:50.31 | 1:43.40 | 183781 | 191545 19 | 42:33.71 | 3:44.35 | 191546 | 208380 20 | 46:18.31 | 3:13.01 | 208381 | 222856 21 | 49:31.32 | 1:16.18 | 222857 | 228574 22 | 50:47.50 | 2:44.28 | 228575 | 240902 23 | 53:32.03 | 3:41.56 | 240903 | 257533 24 | 57:13.59 | 6:04.13 | 257534 | 284846
Range status and errors
Selected range
Filename C:\temp\Bach - The Complete Keyboard Works - Ruzickova\CD02\Bach - The Complete Keyboard Works - CD02.wav
Peak level 56.4 % Extraction speed 3.7 X Range quality 100.0 % Test CRC E7F5C3C9 Copy CRC E7F5C3C9 Copy OK
No errors occurred
AccurateRip summary
Track 1 accurately ripped (confidence 4) [9F0EF6B5] (AR v2)Track 2 accurately ripped (confidence 4) [5458CE0D] (AR v2)Track 3 accurately ripped (confidence 4) [19E64150] (AR v2)Track 4 accurately ripped (confidence 4) [879A5AD2] (AR v2)Track 5 accurately ripped (confidence 4) [D04F97A9] (AR v2)Track 6 accurately ripped (confidence 4) [93B019FF] (AR v2)Track 7 accurately ripped (confidence 4) [F5723CDB] (AR v2)Track 8 accurately ripped (confidence 4) [842F836E] (AR v2)Track 9 accurately ripped (confidence 4) [B02F60FA] (AR v2)Track 10 accurately ripped (confidence 4) [FE8774BD] (AR v2)Track 11 accurately ripped (confidence 4) [8CC0D54A] (AR v2)Track 12 accurately ripped (confidence 4) [8D6E5275] (AR v2)Track 13 accurately ripped (confidence 4) [8314A4A8] (AR v2)Track 14 accurately ripped (confidence 4) [CFC1E044] (AR v2)Track 15 accurately ripped (confidence 4) [75ABFAEC] (AR v2)Track 16 accurately ripped (confidence 4) [5CF4C182] (AR v2)Track 17 accurately ripped (confidence 4) [3B82D3E7] (AR v2)Track 18 accurately ripped (confidence 4) [BC9A8A11] (AR v2)Track 19 accurately ripped (confidence 4) [30CC2A60] (AR v2)Track 20 accurately ripped (confidence 4) [5D758C30] (AR v2)Track 21 accurately ripped (confidence 4) [2EF9971B] (AR v2)Track 22 accurately ripped (confidence 4) [FC9FAB38] (AR v2)Track 23 accurately ripped (confidence 4) [E5F3CCFB] (AR v2)Track 24 accurately ripped (confidence 4) [21EE5D1C] (AR v2)
All tracks accurately ripped
End of status report
==== Log checksum 663FB15038374A0FDA674E91906C729E245B7C442F845B055BFB8077B631B77E ====

Лог создания рипа: CD03

Exact Audio Copy V1.1 from 23. June 2015
EAC extraction logfile from 20. April 2017, 23:26
Zuzana Ruzickova / Bach - The Complete Keyboard Works - CD03 - The Well-Tempered Clavier II
Used drive : PLDS DVD-RW DU8A6SH Adapter: 1 ID: 0
Read mode : SecureUtilize accurate stream : YesDefeat audio cache : YesMake use of C2 pointers : No
Read offset correction : 6Overread into Lead-In and Lead-Out : NoFill up missing offset samples with silence : YesDelete leading and trailing silent blocks : NoNull samples used in CRC calculations : YesUsed interface : Native Win32 interface for Win NT & 2000
Used output format : User Defined EncoderSelected bitrate : 128 kBit/sQuality : HighAdd ID3 tag : NoCommand line compressor : C:\Program Files (x86)\Exact Audio Copy\Flac\flac.exeAdditional command line options : -V -8 -T "Date=%year%" -T "Genre=%genre%" %source%
TOC of the extracted CD
Track | Start | Length | Start sector | End sector --------------------------------------------------------- 1 | 0:00.00 | 2:54.61 | 0 | 13110 2 | 2:54.61 | 2:04.50 | 13111 | 22460 3 | 4:59.36 | 1:20.18 | 22461 | 28478 4 | 6:19.54 | 2:48.61 | 28479 | 41139 5 | 9:08.40 | 1:39.41 | 41140 | 48605 6 | 10:48.06 | 2:18.56 | 48606 | 59011 7 | 13:06.62 | 5:28.16 | 59012 | 83627 8 | 18:35.03 | 2:43.21 | 83628 | 95873 9 | 21:18.24 | 2:46.53 | 95874 | 108376 10 | 24:05.02 | 3:24.49 | 108377 | 123725 11 | 27:29.51 | 1:44.23 | 123726 | 131548 12 | 29:13.74 | 1:55.04 | 131549 | 140177 13 | 31:09.03 | 4:29.71 | 140178 | 160423 14 | 35:38.74 | 1:52.29 | 160424 | 168852 15 | 37:31.28 | 1:58.33 | 168853 | 177735 16 | 39:29.61 | 4:53.52 | 177736 | 199762 17 | 44:23.38 | 2:01.40 | 199763 | 208877 18 | 46:25.03 | 3:39.16 | 208878 | 225318 19 | 50:04.19 | 1:54.04 | 225319 | 233872 20 | 51:58.23 | 3:20.45 | 233873 | 248917 21 | 55:18.68 | 4:38.53 | 248918 | 269820 22 | 59:57.46 | 2:01.41 | 269821 | 278936 23 | 61:59.12 | 3:00.03 | 278937 | 292439 24 | 64:59.15 | 2:34.65 | 292440 | 304054 25 | 67:34.05 | 2:58.62 | 304055 | 317466 26 | 70:32.67 | 3:12.47 | 317467 | 331913
Range status and errors
Selected range
Filename C:\temp\Bach - The Complete Keyboard Works - Ruzickova\CD03\Bach - The Complete Keyboard Works - CD03.wav
Peak level 56.9 % Extraction speed 4.0 X Range quality 100.0 % Test CRC 8FC7E440 Copy CRC 8FC7E440 Copy OK
No errors occurred
AccurateRip summary
Track 1 accurately ripped (confidence 4) [6838BC11] (AR v2)Track 2 accurately ripped (confidence 4) [A6F0209B] (AR v2)Track 3 accurately ripped (confidence 4) [C350516F] (AR v2)Track 4 accurately ripped (confidence 4) [42E37449] (AR v2)Track 5 accurately ripped (confidence 4) [0FAED2A3] (AR v2)Track 6 accurately ripped (confidence 4) [A5493297] (AR v2)Track 7 accurately ripped (confidence 4) [5A0CBDA5] (AR v2)Track 8 accurately ripped (confidence 4) [08E534BE] (AR v2)Track 9 accurately ripped (confidence 4) [AED191CA] (AR v2)Track 10 accurately ripped (confidence 4) [04FA9A56] (AR v2)Track 11 accurately ripped (confidence 4) [F77E21EC] (AR v2)Track 12 accurately ripped (confidence 4) [90085F1B] (AR v2)Track 13 accurately ripped (confidence 4) [B3B46C39] (AR v2)Track 14 accurately ripped (confidence 4) [46A9FD80] (AR v2)Track 15 accurately ripped (confidence 4) [A2481D40] (AR v2)Track 16 accurately ripped (confidence 4) [6AEAA9C0] (AR v2)Track 17 accurately ripped (confidence 4) [2E427627] (AR v2)Track 18 accurately ripped (confidence 4) [F9CF7F37] (AR v2)Track 19 accurately ripped (confidence 4) [F140F8D7] (AR v2)Track 20 accurately ripped (confidence 4) [0029C6A9] (AR v2)Track 21 accurately ripped (confidence 4) [7B454756] (AR v2)Track 22 accurately ripped (confidence 4) [EC906B69] (AR v2)Track 23 accurately ripped (confidence 4) [9C5F7EF9] (AR v2)Track 24 accurately ripped (confidence 4) [A4A4750C] (AR v2)Track 25 accurately ripped (confidence 4) [95E7FCC9] (AR v2)Track 26 accurately ripped (confidence 4) [DBC3F98A] (AR v2)
All tracks accurately ripped
End of status report
==== Log checksum DF6C8ABF8C0AA0D3213052E0D69DA0E2561CD55B43520B2A09A00BAD8FF2160A ====

Лог создания рипа: CD04

Exact Audio Copy V1.1 from 23. June 2015
EAC extraction logfile from 21. April 2017, 0:10
Zuzana Ruzickova / Bach - The Complete Keyboard Works - CD04 - The Well-Tempered Clavier II
Used drive : PLDS DVD-RW DU8A6SH Adapter: 1 ID: 0
Read mode : SecureUtilize accurate stream : YesDefeat audio cache : YesMake use of C2 pointers : No
Read offset correction : 6Overread into Lead-In and Lead-Out : NoFill up missing offset samples with silence : YesDelete leading and trailing silent blocks : NoNull samples used in CRC calculations : YesUsed interface : Native Win32 interface for Win NT & 2000
Used output format : User Defined EncoderSelected bitrate : 128 kBit/sQuality : HighAdd ID3 tag : NoCommand line compressor : C:\Program Files (x86)\Exact Audio Copy\Flac\flac.exeAdditional command line options : -V -8 -T "Date=%year%" -T "Genre=%genre%" %source%
TOC of the extracted CD
Track | Start | Length | Start sector | End sector --------------------------------------------------------- 1 | 0:00.00 | 4:16.18 | 0 | 19217 2 | 4:16.18 | 4:22.19 | 19218 | 38886 3 | 8:38.37 | 1:20.10 | 38887 | 44896 4 | 9:58.47 | 1:35.46 | 44897 | 52067 5 | 11:34.18 | 3:41.44 | 52068 | 68686 6 | 15:15.62 | 3:13.70 | 68687 | 83231 7 | 18:29.57 | 4:44.61 | 83232 | 104592 8 | 23:14.43 | 3:12.31 | 104593 | 119023 9 | 26:26.74 | 2:26.31 | 119024 | 130004 10 | 28:53.30 | 3:39.09 | 130005 | 146438 11 | 32:32.39 | 2:25.15 | 146439 | 157328 12 | 34:57.54 | 1:32.66 | 157329 | 164294 13 | 36:30.45 | 2:37.33 | 164295 | 176102 14 | 39:08.03 | 2:06.23 | 176103 | 185575 15 | 41:14.26 | 3:04.21 | 185576 | 199396 16 | 44:18.47 | 2:08.57 | 199397 | 209053 17 | 46:27.29 | 2:15.27 | 209054 | 219205 18 | 48:42.56 | 4:44.46 | 219206 | 240551 19 | 53:27.27 | 1:50.42 | 240552 | 248843 20 | 55:17.69 | 3:48.71 | 248844 | 266014 21 | 59:06.65 | 2:42.47 | 266015 | 278211 22 | 61:49.37 | 1:59.46 | 278212 | 287182
Range status and errors
Selected range
Filename C:\temp\Bach - The Complete Keyboard Works - Ruzickova\CD04\Bach - The Complete Keyboard Works - CD04.wav
Peak level 58.1 % Extraction speed 3.7 X Range quality 100.0 % Test CRC A7C33C13 Copy CRC A7C33C13 Copy OK
No errors occurred
AccurateRip summary
Track 1 accurately ripped (confidence 4) [3956695F] (AR v2)Track 2 accurately ripped (confidence 4) [3FAF6D42] (AR v2)Track 3 accurately ripped (confidence 4) [39D061BB] (AR v2)Track 4 accurately ripped (confidence 4) [D7281C0B] (AR v2)Track 5 accurately ripped (confidence 4) [0CBC6425] (AR v2)Track 6 accurately ripped (confidence 4) [90BA454E] (AR v2)Track 7 accurately ripped (confidence 4) [D32336F6] (AR v2)Track 8 accurately ripped (confidence 4) [552EC139] (AR v2)Track 9 accurately ripped (confidence 4) [F716F7D7] (AR v2)Track 10 accurately ripped (confidence 4) [7AA50B73] (AR v2)Track 11 accurately ripped (confidence 4) [BD171AC9] (AR v2)Track 12 accurately ripped (confidence 4) [6059A33E] (AR v2)Track 13 accurately ripped (confidence 4) [CEA07D92] (AR v2)Track 14 accurately ripped (confidence 4) [21BE5053] (AR v2)Track 15 accurately ripped (confidence 4) [438149B7] (AR v2)Track 16 accurately ripped (confidence 4) [E7045DBD] (AR v2)Track 17 accurately ripped (confidence 4) [584D0BE2] (AR v2)Track 18 accurately ripped (confidence 4) [A75CD5BE] (AR v2)Track 19 accurately ripped (confidence 4) [6D1B9B2B] (AR v2)Track 20 accurately ripped (confidence 4) [D4FDD698] (AR v2)Track 21 accurately ripped (confidence 4) [E3A029AA] (AR v2)Track 22 accurately ripped (confidence 4) [B4B6D7E8] (AR v2)
All tracks accurately ripped
End of status report
==== Log checksum CDB40E40530DEDD203F6DCF958024BD98C629402E682EDB753010CD63E5CAA2D ====

Лог создания рипа: CD05

Exact Audio Copy V1.1 from 23. June 2015
EAC extraction logfile from 21. April 2017, 0:59
Zuzana Ruzickova / Bach - The Complete Keyboard Works - CD05 - Goldberg Variations
Used drive : PLDS DVD-RW DU8A6SH Adapter: 1 ID: 0
Read mode : SecureUtilize accurate stream : YesDefeat audio cache : YesMake use of C2 pointers : No
Read offset correction : 6Overread into Lead-In and Lead-Out : NoFill up missing offset samples with silence : YesDelete leading and trailing silent blocks : NoNull samples used in CRC calculations : YesUsed interface : Native Win32 interface for Win NT & 2000
Used output format : User Defined EncoderSelected bitrate : 128 kBit/sQuality : HighAdd ID3 tag : NoCommand line compressor : C:\Program Files (x86)\Exact Audio Copy\Flac\flac.exeAdditional command line options : -V -8 -T "Date=%year%" -T "Genre=%genre%" %source%
TOC of the extracted CD
Track | Start | Length | Start sector | End sector --------------------------------------------------------- 1 | 0:00.00 | 2:19.07 | 0 | 10431 2 | 2:19.07 | 2:10.16 | 10432 | 20197 3 | 4:29.23 | 1:36.73 | 20198 | 27470 4 | 6:06.21 | 3:10.59 | 27471 | 41779 5 | 9:17.05 | 1:18.29 | 41780 | 47658 6 | 10:35.34 | 1:36.25 | 47659 | 54883 7 | 12:11.59 | 1:20.44 | 54884 | 60927 8 | 13:32.28 | 2:02.41 | 60928 | 70118 9 | 15:34.69 | 2:04.16 | 70119 | 79434 10 | 17:39.10 | 3:02.14 | 79435 | 93098 11 | 20:41.24 | 1:36.73 | 93099 | 100371 12 | 22:18.22 | 1:50.34 | 100372 | 108655 13 | 24:08.56 | 1:36.32 | 108656 | 115887 14 | 25:45.13 | 3:30.51 | 115888 | 131688 15 | 29:15.64 | 1:07.29 | 131689 | 136742 16 | 30:23.18 | 2:43.21 | 136743 | 148988 17 | 33:06.39 | 1:53.12 | 148989 | 157475 18 | 34:59.51 | 1:00.65 | 157476 | 162040 19 | 36:00.41 | 1:39.21 | 162041 | 169486 20 | 37:39.62 | 1:14.52 | 169487 | 175088 21 | 38:54.39 | 1:05.60 | 175089 | 180023 22 | 40:00.24 | 1:44.09 | 180024 | 187832 23 | 41:44.33 | 0:46.14 | 187833 | 191296 24 | 42:30.47 | 1:12.46 | 191297 | 196742 25 | 43:43.18 | 1:45.43 | 196743 | 204660 26 | 45:28.61 | 4:03.24 | 204661 | 222909 27 | 49:32.10 | 1:05.68 | 222910 | 227852 28 | 50:38.03 | 1:03.48 | 227853 | 232625 29 | 51:41.51 | 1:15.05 | 232626 | 238255 30 | 52:56.56 | 2:40.45 | 238256 | 250300 31 | 55:37.26 | 1:33.36 | 250301 | 257311 32 | 57:10.62 | 2:27.07 | 257312 | 268343
Range status and errors
Selected range
Filename C:\temp\Bach - The Complete Keyboard Works - Ruzickova\CD05\Bach - The Complete Keyboard Works - CD05.wav
Peak level 58.0 % Extraction speed 3.6 X Range quality 100.0 % Test CRC DB7BF81D Copy CRC DB7BF81D Copy OK
No errors occurred
AccurateRip summary
Track 1 accurately ripped (confidence 4) [00072816] (AR v2)Track 2 accurately ripped (confidence 4) [007DCBBB] (AR v2)Track 3 accurately ripped (confidence 4) [9AA882B9] (AR v2)Track 4 accurately ripped (confidence 4) [7FDFD8AF] (AR v2)Track 5 accurately ripped (confidence 4) [521CD2AB] (AR v2)Track 6 accurately ripped (confidence 4) [A3EC6417] (AR v2)Track 7 accurately ripped (confidence 4) [E4EC34D7] (AR v2)Track 8 accurately ripped (confidence 4) [2BCBD591] (AR v2)Track 9 accurately ripped (confidence 4) [43161BFF] (AR v2)Track 10 accurately ripped (confidence 4) [F30CBBED] (AR v2)Track 11 accurately ripped (confidence 4) [E660403D] (AR v2)Track 12 accurately ripped (confidence 4) [AD14EF17] (AR v2)Track 13 accurately ripped (confidence 4) [77A36B8D] (AR v2)Track 14 accurately ripped (confidence 4) [4C68FCB1] (AR v2)Track 15 accurately ripped (confidence 4) [68D700F5] (AR v2)Track 16 accurately ripped (confidence 4) [659EE21F] (AR v2)Track 17 accurately ripped (confidence 4) [BBDD8FAB] (AR v2)Track 18 accurately ripped (confidence 4) [8920E831] (AR v2)Track 19 accurately ripped (confidence 4) [9314186B] (AR v2)Track 20 accurately ripped (confidence 4) [B207FF4D] (AR v2)Track 21 accurately ripped (confidence 4) [77F74E19] (AR v2)Track 22 accurately ripped (confidence 4) [F1CD2F1E] (AR v2)Track 23 accurately ripped (confidence 4) [C8172D4A] (AR v2)Track 24 accurately ripped (confidence 4) [EBEB0A3F] (AR v2)Track 25 accurately ripped (confidence 4) [245F111C] (AR v2)Track 26 accurately ripped (confidence 4) [A597751B] (AR v2)Track 27 accurately ripped (confidence 4) [418B2C86] (AR v2)Track 28 accurately ripped (confidence 4) [B59A6FBB] (AR v2)Track 29 accurately ripped (confidence 4) [8AE5226F] (AR v2)Track 30 accurately ripped (confidence 4) [E81E2880] (AR v2)Track 31 accurately ripped (confidence 4) [BB34BFF7] (AR v2)Track 32 accurately ripped (confidence 4) [58CD95B1] (AR v2)
All tracks accurately ripped
End of status report
==== Log checksum 6B47950B2ECBAA254FD7BB489406AE9C89E49D4B0BAC0A7090F68CE72002308E ====

Лог создания рипа: CD06

Exact Audio Copy V1.1 from 23. June 2015
EAC extraction logfile from 21. April 2017, 18:48
Zuzana Ruzickova / Bach - The Complete Keyboard Works - CD06
Used drive : TSSTcorpCD/DVDW SH-S182M Adapter: 1 ID: 1
Read mode : SecureUtilize accurate stream : YesDefeat audio cache : YesMake use of C2 pointers : No
Read offset correction : 6Overread into Lead-In and Lead-Out : NoFill up missing offset samples with silence : YesDelete leading and trailing silent blocks : NoNull samples used in CRC calculations : YesUsed interface : Native Win32 interface for Win NT & 2000
Used output format : User Defined EncoderSelected bitrate : 128 kBit/sQuality : HighAdd ID3 tag : NoCommand line compressor : C:\Program Files (x86)\Exact Audio Copy\Flac\flac.exeAdditional command line options : -V -8 -T "Date=%year%" -T "Genre=%genre%" %source%
TOC of the extracted CD
Track | Start | Length | Start sector | End sector --------------------------------------------------------- 1 | 0:00.00 | 1:09.07 | 0 | 5181 2 | 1:09.07 | 1:23.24 | 5182 | 11430 3 | 2:32.31 | 2:01.63 | 11431 | 20568 4 | 4:34.19 | 2:35.07 | 20569 | 32200 5 | 7:09.26 | 1:10.40 | 32201 | 37490 6 | 8:19.66 | 1:25.36 | 37491 | 43901 7 | 9:45.27 | 1:02.69 | 43902 | 48620 8 | 10:48.21 | 3:04.41 | 48621 | 62461 9 | 13:52.62 | 1:46.25 | 62462 | 70436 10 | 15:39.12 | 3:23.23 | 70437 | 85684 11 | 19:02.35 | 1:39.24 | 85685 | 93133 12 | 20:41.59 | 2:04.72 | 93134 | 102505 13 | 22:46.56 | 1:22.39 | 102506 | 108694 14 | 24:09.20 | 3:13.16 | 108695 | 123185 15 | 27:22.36 | 0:55.22 | 123186 | 127332 16 | 28:17.58 | 1:21.00 | 127333 | 133407 17 | 29:38.58 | 2:37.70 | 133408 | 145252 18 | 32:16.53 | 4:18.16 | 145253 | 164618 19 | 36:34.69 | 0:54.12 | 164619 | 168680 20 | 37:29.06 | 1:14.59 | 168681 | 174289 21 | 38:43.65 | 1:46.52 | 174290 | 182291 22 | 40:30.42 | 2:30.12 | 182292 | 193553 23 | 43:00.54 | 1:22.28 | 193554 | 199731 24 | 44:23.07 | 1:40.72 | 199732 | 207303 25 | 46:04.04 | 1:17.19 | 207304 | 213097 26 | 47:21.23 | 2:31.72 | 213098 | 224494 27 | 49:53.20 | 1:40.25 | 224495 | 232019 28 | 51:33.45 | 1:32.66 | 232020 | 238985 29 | 53:06.36 | 1:05.60 | 238986 | 243920 30 | 54:12.21 | 1:40.13 | 243921 | 251433 31 | 55:52.34 | 1:04.64 | 251434 | 256297 32 | 56:57.23 | 3:28.08 | 256298 | 271905 33 | 60:25.31 | 1:12.24 | 271906 | 277329 34 | 61:37.55 | 2:52.34 | 277330 | 290263 35 | 64:30.14 | 2:51.50 | 290264 | 303138 36 | 67:21.64 | 5:08.23 | 303139 | 326261
Range status and errors
Selected range
Filename C:\temp\Bach - The Complete Keyboard Works - Ruzickova\CD06\Bach - The Complete Keyboard Works - CD06.wav
Peak level 55.9 % Extraction speed 8.3 X Range quality 99.9 % Test CRC 5EAE5948 Copy CRC 5EAE5948 Copy OK
No errors occurred
AccurateRip summary
Track 1 accurately ripped (confidence 4) [515A948D] (AR v2)Track 2 accurately ripped (confidence 4) [02A301F5] (AR v2)Track 3 accurately ripped (confidence 4) [085B2DA8] (AR v2)Track 4 accurately ripped (confidence 4) [BE4FD422] (AR v2)Track 5 accurately ripped (confidence 4) [A30F0771] (AR v2)Track 6 accurately ripped (confidence 4) [DC1A59E3] (AR v2)Track 7 accurately ripped (confidence 4) [466E847C] (AR v2)Track 8 accurately ripped (confidence 4) [A1D105AF] (AR v2)Track 9 accurately ripped (confidence 4) [3E3C6C9F] (AR v2)Track 10 accurately ripped (confidence 4) [4704D3EC] (AR v2)Track 11 accurately ripped (confidence 4) [303469C7] (AR v2)Track 12 accurately ripped (confidence 4) [79338E70] (AR v2)Track 13 accurately ripped (confidence 4) [65477FF8] (AR v2)Track 14 accurately ripped (confidence 4) [E569A305] (AR v2)Track 15 accurately ripped (confidence 4) [CD4909E7] (AR v2)Track 16 accurately ripped (confidence 4) [89C4F5A4] (AR v2)Track 17 accurately ripped (confidence 4) [7134CD59] (AR v2)Track 18 accurately ripped (confidence 4) [11568AEF] (AR v2)Track 19 accurately ripped (confidence 4) [12A8F844] (AR v2)Track 20 accurately ripped (confidence 4) [8C0E210E] (AR v2)Track 21 accurately ripped (confidence 4) [8CF83F4C] (AR v2)Track 22 accurately ripped (confidence 4) [DA071868] (AR v2)Track 23 accurately ripped (confidence 4) [1EFF7B73] (AR v2)Track 24 accurately ripped (confidence 4) [CCB2A0FD] (AR v2)Track 25 accurately ripped (confidence 4) [6851DEEA] (AR v2)Track 26 accurately ripped (confidence 4) [1565F8BF] (AR v2)Track 27 accurately ripped (confidence 4) [411425FE] (AR v2)Track 28 accurately ripped (confidence 4) [CCBE4E8F] (AR v2)Track 29 accurately ripped (confidence 4) [E1FB5440] (AR v2)Track 30 accurately ripped (confidence 4) [BAEC6D54] (AR v2)Track 31 accurately ripped (confidence 4) [D2A72ADB] (AR v2)Track 32 accurately ripped (confidence 4) [C410FDA4] (AR v2)Track 33 accurately ripped (confidence 4) [ED0FA175] (AR v2)Track 34 accurately ripped (confidence 4) [C1435CE6] (AR v2)Track 35 accurately ripped (confidence 4) [59BF1AAE] (AR v2)Track 36 accurately ripped (confidence 4) [16BD226A] (AR v2)
All tracks accurately ripped
End of status report
==== Log checksum 4394D299FA90588502B3B7DBEA5FA7043E84AE143A1D5875D159101295F142B0 ====

Лог создания рипа: CD07

Exact Audio Copy V1.1 from 23. June 2015
EAC extraction logfile from 21. April 2017, 19:23
Zuzana Ruzickova / Bach - The Complete Keyboard Works - CD07 - French Suites Nos.1-4
Used drive : TSSTcorpCD/DVDW SH-S182M Adapter: 1 ID: 1
Read mode : SecureUtilize accurate stream : YesDefeat audio cache : YesMake use of C2 pointers : No
Read offset correction : 6Overread into Lead-In and Lead-Out : NoFill up missing offset samples with silence : YesDelete leading and trailing silent blocks : NoNull samples used in CRC calculations : YesUsed interface : Native Win32 interface for Win NT & 2000
Used output format : User Defined EncoderSelected bitrate : 128 kBit/sQuality : HighAdd ID3 tag : NoCommand line compressor : C:\Program Files (x86)\Exact Audio Copy\Flac\flac.exeAdditional command line options : -V -8 -T "Date=%year%" -T "Genre=%genre%" %source%
TOC of the extracted CD
Track | Start | Length | Start sector | End sector --------------------------------------------------------- 1 | 0:00.00 | 3:41.04 | 0 | 16578 2 | 3:41.04 | 2:11.12 | 16579 | 26415 3 | 5:52.16 | 3:15.55 | 26416 | 41095 4 | 9:07.71 | 4:02.40 | 41096 | 59285 5 | 13:10.36 | 3:52.18 | 59286 | 76703 6 | 17:02.54 | 3:27.64 | 76704 | 92292 7 | 20:30.43 | 2:20.40 | 92293 | 102832 8 | 22:51.08 | 3:15.20 | 102833 | 117477 9 | 26:06.28 | 1:48.02 | 117478 | 125579 10 | 27:54.30 | 1:20.19 | 125580 | 131598 11 | 29:14.49 | 2:47.23 | 131599 | 144146 12 | 32:01.72 | 3:17.32 | 144147 | 158953 13 | 35:19.29 | 2:42.06 | 158954 | 171109 14 | 38:01.35 | 3:23.20 | 171110 | 186354 15 | 41:24.55 | 3:23.12 | 186355 | 201591 16 | 44:47.67 | 1:42.11 | 201592 | 209252 17 | 46:30.03 | 2:34.08 | 209253 | 220810 18 | 49:04.11 | 2:54.19 | 220811 | 233879 19 | 51:58.30 | 2:08.49 | 233880 | 243528 20 | 54:07.04 | 3:23.56 | 243529 | 258809 21 | 57:30.60 | 3:16.09 | 258810 | 273518 22 | 60:46.69 | 2:36.47 | 273519 | 285265 23 | 63:23.41 | 2:42.32 | 285266 | 297447
Range status and errors
Selected range
Filename C:\temp\Bach - The Complete Keyboard Works - Ruzickova\CD07\Bach - The Complete Keyboard Works - CD07.wav
Peak level 56.5 % Extraction speed 7.5 X Range quality 100.0 % Test CRC CEA6843B Copy CRC CEA6843B Copy OK
No errors occurred
AccurateRip summary
Track 1 accurately ripped (confidence 4) [A5A774D2] (AR v2)Track 2 accurately ripped (confidence 4) [AF61C9BF] (AR v2)Track 3 accurately ripped (confidence 4) [1830BFBC] (AR v2)Track 4 accurately ripped (confidence 4) [83595AD2] (AR v2)Track 5 accurately ripped (confidence 4) [4985D156] (AR v2)Track 6 accurately ripped (confidence 4) [9AD3D3EA] (AR v2)Track 7 accurately ripped (confidence 4) [77CF411D] (AR v2)Track 8 accurately ripped (confidence 4) [8A09EBDD] (AR v2)Track 9 accurately ripped (confidence 4) [CCC3CDFD] (AR v2)Track 10 accurately ripped (confidence 4) [33C3EA7F] (AR v2)Track 11 accurately ripped (confidence 4) [93EEDAF9] (AR v2)Track 12 accurately ripped (confidence 4) [5DE33346] (AR v2)Track 13 accurately ripped (confidence 4) [7E7A9C19] (AR v2)Track 14 accurately ripped (confidence 4) [2A10A943] (AR v2)Track 15 accurately ripped (confidence 4) [A2750AEE] (AR v2)Track 16 accurately ripped (confidence 4) [FF881F0F] (AR v2)Track 17 accurately ripped (confidence 4) [502C34FD] (AR v2)Track 18 accurately ripped (confidence 4) [F56B304F] (AR v2)Track 19 accurately ripped (confidence 4) [959226D0] (AR v2)Track 20 accurately ripped (confidence 4) [862AF09C] (AR v2)Track 21 accurately ripped (confidence 4) [3057303F] (AR v2)Track 22 accurately ripped (confidence 4) [7DD003A3] (AR v2)Track 23 accurately ripped (confidence 4) [B8E36988] (AR v2)
All tracks accurately ripped
End of status report
==== Log checksum 08BEDA0F14648DB41B465434FCE8924175076EDCCAC73580C1D41217D1819634 ====

Лог создания рипа: CD08

Exact Audio Copy V1.1 from 23. June 2015
EAC extraction logfile from 21. April 2017, 19:47
Zuzana Ruzickova / Bach - The Complete Keyboard Works - CD08 - French Suites Nos.5 & 6; Chromatic Fantasia; Italian Concerto
Used drive : TSSTcorpCD/DVDW SH-S182M Adapter: 1 ID: 1
Read mode : SecureUtilize accurate stream : YesDefeat audio cache : YesMake use of C2 pointers : No
Read offset correction : 6Overread into Lead-In and Lead-Out : NoFill up missing offset samples with silence : YesDelete leading and trailing silent blocks : NoNull samples used in CRC calculations : YesUsed interface : Native Win32 interface for Win NT & 2000
Used output format : User Defined EncoderSelected bitrate : 128 kBit/sQuality : HighAdd ID3 tag : NoCommand line compressor : C:\Program Files (x86)\Exact Audio Copy\Flac\flac.exeAdditional command line options : -V -8 -T "Date=%year%" -T "Genre=%genre%" %source%
TOC of the extracted CD
Track | Start | Length | Start sector | End sector --------------------------------------------------------- 1 | 0:00.00 | 3:11.12 | 0 | 14336 2 | 3:11.12 | 1:51.47 | 14337 | 22708 3 | 5:02.59 | 5:30.26 | 22709 | 47484 4 | 10:33.10 | 1:20.54 | 47485 | 53538 5 | 11:53.64 | 1:35.32 | 53539 | 60695 6 | 13:29.21 | 2:44.16 | 60696 | 73011 7 | 16:13.37 | 3:37.35 | 73012 | 89321 8 | 19:50.72 | 3:00.15 | 89322 | 102836 9 | 22:51.12 | 1:43.13 | 102837 | 110574 10 | 24:34.25 | 3:35.16 | 110575 | 126715 11 | 28:09.41 | 1:24.49 | 126716 | 133064 12 | 29:34.15 | 2:06.63 | 133065 | 142577 13 | 31:41.03 | 1:49.74 | 142578 | 150826 14 | 33:31.02 | 1:46.41 | 150827 | 158817 15 | 35:17.43 | 2:36.63 | 158818 | 170580 16 | 37:54.31 | 8:46.47 | 170581 | 210077 17 | 46:41.03 | 5:42.40 | 210078 | 235767 18 | 52:23.43 | 4:02.53 | 235768 | 253970 19 | 56:26.21 | 6:15.62 | 253971 | 282157 20 | 62:42.08 | 3:45.01 | 282158 | 299033
Range status and errors
Selected range
Filename C:\temp\Bach - The Complete Keyboard Works - Ruzickova\CD08\Bach - The Complete Keyboard Works - CD08.wav
Peak level 52.6 % Extraction speed 7.5 X Range quality 100.0 % Test CRC 4E6D1195 Copy CRC 4E6D1195 Copy OK
No errors occurred
AccurateRip summary
Track 1 accurately ripped (confidence 4) [C291ADF5] (AR v2)Track 2 accurately ripped (confidence 4) [E4DF9194] (AR v2)Track 3 accurately ripped (confidence 4) [F88721AB] (AR v2)Track 4 accurately ripped (confidence 4) [B0021DFB] (AR v2)Track 5 accurately ripped (confidence 4) [0A966542] (AR v2)Track 6 accurately ripped (confidence 4) [D4262296] (AR v2)Track 7 accurately ripped (confidence 4) [97F8947F] (AR v2)Track 8 accurately ripped (confidence 4) [4F7ED033] (AR v2)Track 9 accurately ripped (confidence 4) [B54EE5CC] (AR v2)Track 10 accurately ripped (confidence 4) [76EEEA8F] (AR v2)Track 11 accurately ripped (confidence 4) [6AD807C0] (AR v2)Track 12 accurately ripped (confidence 4) [6A3C55FD] (AR v2)Track 13 accurately ripped (confidence 4) [ABCC2697] (AR v2)Track 14 accurately ripped (confidence 4) [3115BD4E] (AR v2)Track 15 accurately ripped (confidence 4) [5531B699] (AR v2)Track 16 accurately ripped (confidence 4) [E1316D06] (AR v2)Track 17 accurately ripped (confidence 4) [81BCC01F] (AR v2)Track 18 accurately ripped (confidence 4) [6997807C] (AR v2)Track 19 accurately ripped (confidence 4) [E3847443] (AR v2)Track 20 accurately ripped (confidence 4) [C82A1B05] (AR v2)
All tracks accurately ripped
End of status report
==== Log checksum 3F8E5844DDD6AFD6C3878FBF09DEF88602A7082CA91BD95BDA6857E6404C613D ====

Лог создания рипа: CD09

Exact Audio Copy V1.1 from 23. June 2015
EAC extraction logfile from 21. April 2017, 20:12
Zuzana Ruzickova / Bach - The Complete Keyboard Works - CD09 - English Suites Nos.1-3
Used drive : TSSTcorpCD/DVDW SH-S182M Adapter: 1 ID: 1
Read mode : SecureUtilize accurate stream : YesDefeat audio cache : YesMake use of C2 pointers : No
Read offset correction : 6Overread into Lead-In and Lead-Out : NoFill up missing offset samples with silence : YesDelete leading and trailing silent blocks : NoNull samples used in CRC calculations : YesUsed interface : Native Win32 interface for Win NT & 2000
Used output format : User Defined EncoderSelected bitrate : 128 kBit/sQuality : HighAdd ID3 tag : NoCommand line compressor : C:\Program Files (x86)\Exact Audio Copy\Flac\flac.exeAdditional command line options : -V -8 -T "Date=%year%" -T "Genre=%genre%" %source%
TOC of the extracted CD
Track | Start | Length | Start sector | End sector --------------------------------------------------------- 1 | 0:00.00 | 2:53.49 | 0 | 13023 2 | 2:53.49 | 4:39.59 | 13024 | 34007 3 | 7:33.33 | 1:43.12 | 34008 | 41744 4 | 9:16.45 | 2:25.37 | 41745 | 52656 5 | 11:42.07 | 2:20.03 | 52657 | 63159 6 | 14:02.10 | 1:59.59 | 63160 | 72143 7 | 16:01.69 | 4:41.41 | 72144 | 93259 8 | 20:43.35 | 5:38.70 | 93260 | 118679 9 | 26:22.30 | 2:53.44 | 118680 | 131698 10 | 29:15.74 | 6:09.05 | 131699 | 159378 11 | 35:25.04 | 3:30.63 | 159379 | 175191 12 | 38:55.67 | 1:58.27 | 175192 | 184068 13 | 40:54.19 | 4:27.68 | 184069 | 204161 14 | 45:22.12 | 5:02.49 | 204162 | 226860 15 | 50:24.61 | 2:31.05 | 226861 | 238190 16 | 52:55.66 | 3:39.46 | 238191 | 254661 17 | 56:35.37 | 3:59.17 | 254662 | 272603 18 | 60:34.54 | 2:29.43 | 272604 | 283821 19 | 63:04.22 | 4:19.58 | 283822 | 303304 20 | 67:24.05 | 3:43.63 | 303305 | 320092 21 | 71:07.68 | 2:57.58 | 320093 | 333425
Range status and errors
Selected range
Filename C:\temp\Bach - The Complete Keyboard Works - Ruzickova\CD09\Bach - The Complete Keyboard Works - CD09.wav
Peak level 55.0 % Extraction speed 8.3 X Range quality 100.0 % Test CRC A48399D5 Copy CRC A48399D5 Copy OK
No errors occurred
AccurateRip summary
Track 1 accurately ripped (confidence 4) [36DA5E61] (AR v2)Track 2 accurately ripped (confidence 4) [05542BDE] (AR v2)Track 3 accurately ripped (confidence 4) [D07E414A] (AR v2)Track 4 accurately ripped (confidence 4) [A7B77A40] (AR v2)Track 5 accurately ripped (confidence 4) [6A17118F] (AR v2)Track 6 accurately ripped (confidence 4) [C912E5A9] (AR v2)Track 7 accurately ripped (confidence 4) [607F20EB] (AR v2)Track 8 accurately ripped (confidence 4) [1883CF55] (AR v2)Track 9 accurately ripped (confidence 4) [C68624FE] (AR v2)Track 10 accurately ripped (confidence 4) [51F9194D] (AR v2)Track 11 accurately ripped (confidence 4) [78AF93BE] (AR v2)Track 12 accurately ripped (confidence 4) [E1B1F044] (AR v2)Track 13 accurately ripped (confidence 4) [4C71155E] (AR v2)Track 14 accurately ripped (confidence 4) [F66D64E5] (AR v2)Track 15 accurately ripped (confidence 4) [00432912] (AR v2)Track 16 accurately ripped (confidence 4) [3436A7DE] (AR v2)Track 17 accurately ripped (confidence 4) [D1E96A47] (AR v2)Track 18 accurately ripped (confidence 4) [CF12884F] (AR v2)Track 19 accurately ripped (confidence 4) [84E21781] (AR v2)Track 20 accurately ripped (confidence 4) [00C5C34A] (AR v2)Track 21 accurately ripped (confidence 4) [5CDC14F7] (AR v2)
All tracks accurately ripped
End of status report
==== Log checksum B1B689746675CC740F09C8928B8FF1954FF8D133976D9A14B38F144C4EDB7290 ====

Лог создания рипа: CD10

Exact Audio Copy V1.1 from 23. June 2015
EAC extraction logfile from 21. April 2017, 20:35
Zuzana Ruzickova / Bach - The Complete Keyboard Works - CD10 - English Suites Nos.4-6
Used drive : TSSTcorpCD/DVDW SH-S182M Adapter: 1 ID: 1
Read mode : SecureUtilize accurate stream : YesDefeat audio cache : YesMake use of C2 pointers : No
Read offset correction : 6Overread into Lead-In and Lead-Out : NoFill up missing offset samples with silence : YesDelete leading and trailing silent blocks : NoNull samples used in CRC calculations : YesUsed interface : Native Win32 interface for Win NT & 2000
Used output format : User Defined EncoderSelected bitrate : 128 kBit/sQuality : HighAdd ID3 tag : NoCommand line compressor : C:\Program Files (x86)\Exact Audio Copy\Flac\flac.exeAdditional command line options : -V -8 -T "Date=%year%" -T "Genre=%genre%" %source%
TOC of the extracted CD
Track | Start | Length | Start sector | End sector --------------------------------------------------------- 1 | 0:00.00 | 5:04.39 | 0 | 22838 2 | 5:04.39 | 3:32.62 | 22839 | 38800 3 | 8:37.26 | 1:46.10 | 38801 | 46760 4 | 10:23.36 | 3:07.15 | 46761 | 60800 5 | 13:30.51 | 4:07.39 | 60801 | 79364 6 | 17:38.15 | 3:33.48 | 79365 | 95387 7 | 21:11.63 | 6:31.41 | 95388 | 124753 8 | 27:43.29 | 3:45.60 | 124754 | 141688 9 | 31:29.14 | 2:40.18 | 141689 | 153706 10 | 34:09.32 | 3:35.70 | 153707 | 169901 11 | 37:45.27 | 4:39.21 | 169902 | 190847 12 | 42:24.48 | 3:43.37 | 190848 | 207609 13 | 46:08.10 | 8:49.44 | 207610 | 247328 14 | 54:57.54 | 5:10.30 | 247329 | 270608 15 | 60:08.09 | 2:33.59 | 270609 | 282142 16 | 62:41.68 | 3:31.17 | 282143 | 297984 17 | 66:13.10 | 4:13.20 | 297985 | 316979 18 | 70:26.30 | 3:53.67 | 316980 | 334521
Range status and errors
Selected range
Filename C:\temp\Bach - The Complete Keyboard Works - Ruzickova\CD10\Bach - The Complete Keyboard Works - CD10.wav
Peak level 43.1 % Extraction speed 8.3 X Range quality 100.0 % Test CRC 66092DA4 Copy CRC 66092DA4 Copy OK
No errors occurred
AccurateRip summary
Track 1 accurately ripped (confidence 3) [15228BCB] (AR v2)Track 2 accurately ripped (confidence 3) [9639FD5A] (AR v2)Track 3 accurately ripped (confidence 3) [EF6977F0] (AR v2)Track 4 accurately ripped (confidence 3) [8E6408FD] (AR v2)Track 5 accurately ripped (confidence 3) [47910794] (AR v2)Track 6 accurately ripped (confidence 3) [AC991A06] (AR v2)Track 7 accurately ripped (confidence 3) [99E857B0] (AR v2)Track 8 accurately ripped (confidence 3) [81B5153C] (AR v2)Track 9 accurately ripped (confidence 3) [17D7F8BA] (AR v2)Track 10 accurately ripped (confidence 3) [75E181F1] (AR v2)Track 11 accurately ripped (confidence 3) [E9C3CA29] (AR v2)Track 12 accurately ripped (confidence 3) [FCE1B9CC] (AR v2)Track 13 accurately ripped (confidence 3) [B06C3DD6] (AR v2)Track 14 accurately ripped (confidence 3) [2ABB3393] (AR v2)Track 15 accurately ripped (confidence 3) [EBCCAB36] (AR v2)Track 16 accurately ripped (confidence 3) [AD92DD05] (AR v2)Track 17 accurately ripped (confidence 3) [E2BE1975] (AR v2)Track 18 accurately ripped (confidence 3) [EF535716] (AR v2)
All tracks accurately ripped
End of status report
==== Log checksum FAD99EAEB0B161350BBE4EA6E3F2C5BF3F85C0D76149E72FBD2ACEFFCD1E1F78 ====

Лог создания рипа: CD11

Exact Audio Copy V1.1 from 23. June 2015
EAC extraction logfile from 21. April 2017, 21:00
Zuzana Ruzickova / Bach - The Complete Keyboard Works - CD11 - Partitas Nos. 1, 5 & 6
Used drive : TSSTcorpCD/DVDW SH-S182M Adapter: 1 ID: 1
Read mode : SecureUtilize accurate stream : YesDefeat audio cache : YesMake use of C2 pointers : No
Read offset correction : 6Overread into Lead-In and Lead-Out : NoFill up missing offset samples with silence : YesDelete leading and trailing silent blocks : NoNull samples used in CRC calculations : YesUsed interface : Native Win32 interface for Win NT & 2000
Used output format : User Defined EncoderSelected bitrate : 128 kBit/sQuality : HighAdd ID3 tag : NoCommand line compressor : C:\Program Files (x86)\Exact Audio Copy\Flac\flac.exeAdditional command line options : -V -8 -T "Date=%year%" -T "Genre=%genre%" %source%
TOC of the extracted CD
Track | Start | Length | Start sector | End sector --------------------------------------------------------- 1 | 0:00.00 | 2:00.57 | 0 | 9056 2 | 2:00.57 | 3:25.33 | 9057 | 24464 3 | 5:26.15 | 2:52.22 | 24465 | 37386 4 | 8:18.37 | 6:00.47 | 37387 | 64433 5 | 14:19.09 | 3:24.57 | 64434 | 79790 6 | 17:43.66 | 2:28.61 | 79791 | 90951 7 | 20:12.52 | 2:18.29 | 90952 | 101330 8 | 22:31.06 | 4:14.25 | 101331 | 120405 9 | 26:45.31 | 2:17.46 | 120406 | 130726 10 | 29:03.02 | 4:51.70 | 130727 | 152621 11 | 33:54.72 | 2:35.48 | 152622 | 164294 12 | 36:30.45 | 2:22.52 | 164295 | 174996 13 | 38:53.22 | 4:29.39 | 174997 | 195210 14 | 43:22.61 | 6:46.74 | 195211 | 225734 15 | 50:09.60 | 4:09.70 | 225735 | 244479 16 | 54:19.55 | 5:18.60 | 244480 | 268389 17 | 59:38.40 | 2:09.34 | 268390 | 278098 18 | 61:47.74 | 7:02.26 | 278099 | 309774 19 | 68:50.25 | 2:17.00 | 309775 | 320049 20 | 71:07.25 | 6:25.13 | 320050 | 348937
Range status and errors
Selected range
Filename C:\temp\Bach - The Complete Keyboard Works - Ruzickova\CD11\Bach - The Complete Keyboard Works - CD11.wav
Peak level 49.0 % Extraction speed 8.7 X Range quality 100.0 % Test CRC D7BF4E73 Copy CRC D7BF4E73 Copy OK
No errors occurred
AccurateRip summary
Track 1 accurately ripped (confidence 3) [F485E2B3] (AR v2)Track 2 accurately ripped (confidence 3) [49B25026] (AR v2)Track 3 accurately ripped (confidence 3) [2E29BB80] (AR v2)Track 4 accurately ripped (confidence 3) [D5A971E2] (AR v2)Track 5 accurately ripped (confidence 3) [BF9F770B] (AR v2)Track 6 accurately ripped (confidence 3) [C5901989] (AR v2)Track 7 accurately ripped (confidence 3) [AC2CE8E1] (AR v2)Track 8 accurately ripped (confidence 3) [D8E9639D] (AR v2)Track 9 accurately ripped (confidence 3) [E52ED8C7] (AR v2)Track 10 accurately ripped (confidence 3) [1DE93CED] (AR v2)Track 11 accurately ripped (confidence 3) [4616028B] (AR v2)Track 12 accurately ripped (confidence 3) [87E04BE6] (AR v2)Track 13 accurately ripped (confidence 3) [889DFE19] (AR v2)Track 14 accurately ripped (confidence 3) [5DEE1E2A] (AR v2)Track 15 accurately ripped (confidence 3) [3F90544E] (AR v2)Track 16 accurately ripped (confidence 3) [3F6D025D] (AR v2)Track 17 accurately ripped (confidence 3) [11333A14] (AR v2)Track 18 accurately ripped (confidence 3) [BCBB7ABB] (AR v2)Track 19 accurately ripped (confidence 3) [E05B4EFB] (AR v2)Track 20 accurately ripped (confidence 3) [9308BE1B] (AR v2)
All tracks accurately ripped
End of status report
==== Log checksum 457B28AD8FFBF58AF7237CA16AE1FD9FD3BDCF6290D1143F7F0D5AB7248D9FFA ====

Лог создания рипа: CD12

Exact Audio Copy V1.1 from 23. June 2015
EAC extraction logfile from 21. April 2017, 21:24
Zuzana Ruzickova / Bach - The Complete Keyboard Works - CD12 - Partitas Nos. 2-4
Used drive : TSSTcorpCD/DVDW SH-S182M Adapter: 1 ID: 1
Read mode : SecureUtilize accurate stream : YesDefeat audio cache : YesMake use of C2 pointers : No
Read offset correction : 6Overread into Lead-In and Lead-Out : NoFill up missing offset samples with silence : YesDelete leading and trailing silent blocks : NoNull samples used in CRC calculations : YesUsed interface : Native Win32 interface for Win NT & 2000
Used output format : User Defined EncoderSelected bitrate : 128 kBit/sQuality : HighAdd ID3 tag : NoCommand line compressor : C:\Program Files (x86)\Exact Audio Copy\Flac\flac.exeAdditional command line options : -V -8 -T "Date=%year%" -T "Genre=%genre%" %source%
TOC of the extracted CD
Track | Start | Length | Start sector | End sector --------------------------------------------------------- 1 | 0:00.00 | 5:38.21 | 0 | 25370 2 | 5:38.21 | 4:42.48 | 25371 | 46568 3 | 10:20.69 | 2:44.41 | 46569 | 58909 4 | 13:05.35 | 3:30.40 | 58910 | 74699 5 | 16:36.00 | 1:41.09 | 74700 | 82283 6 | 18:17.09 | 3:57.04 | 82284 | 100062 7 | 22:14.13 | 4:11.32 | 100063 | 118919 8 | 26:25.45 | 3:23.39 | 118920 | 134183 9 | 29:49.09 | 3:11.69 | 134184 | 148577 10 | 33:01.03 | 4:20.73 | 148578 | 168150 11 | 37:22.01 | 2:30.72 | 168151 | 179472 12 | 39:52.73 | 1:20.00 | 179473 | 185472 13 | 41:12.73 | 3:32.41 | 185473 | 201413 14 | 44:45.39 | 7:01.43 | 201414 | 233031 15 | 51:47.07 | 8:09.35 | 233032 | 269741 16 | 59:56.42 | 4:00.43 | 269742 | 287784 17 | 63:57.10 | 2:49.14 | 287785 | 300473 18 | 66:46.24 | 6:15.51 | 300474 | 328649 19 | 73:02.00 | 1:38.69 | 328650 | 336068 20 | 74:40.69 | 4:08.42 | 336069 | 354710
Range status and errors
Selected range
Filename C:\temp\Bach - The Complete Keyboard Works - Ruzickova\CD12\Bach - The Complete Keyboard Works - CD12.wav
Peak level 42.9 % Extraction speed 8.5 X Range quality 100.0 % Test CRC 5C5881EC Copy CRC 5C5881EC Copy OK
No errors occurred
AccurateRip summary
Track 1 accurately ripped (confidence 3) [07A3FF81] (AR v2)Track 2 accurately ripped (confidence 3) [2511FAF6] (AR v2)Track 3 accurately ripped (confidence 3) [1E7E34C1] (AR v2)Track 4 accurately ripped (confidence 3) [81DF98F5] (AR v2)Track 5 accurately ripped (confidence 3) [BE9B6E5A] (AR v2)Track 6 accurately ripped (confidence 3) [882AFE52] (AR v2)Track 7 accurately ripped (confidence 3) [ED91F355] (AR v2)Track 8 accurately ripped (confidence 3) [F7C94037] (AR v2)Track 9 accurately ripped (confidence 3) [3B34C709] (AR v2)Track 10 accurately ripped (confidence 3) [A61BFA11] (AR v2)Track 11 accurately ripped (confidence 3) [838ECBB6] (AR v2)Track 12 accurately ripped (confidence 3) [52D0C95C] (AR v2)Track 13 accurately ripped (confidence 3) [CAE6458E] (AR v2)Track 14 accurately ripped (confidence 3) [932C02DE] (AR v2)Track 15 accurately ripped (confidence 3) [970C43EA] (AR v2)Track 16 accurately ripped (confidence 3) [7FF0FE77] (AR v2)Track 17 accurately ripped (confidence 3) [16CB5FAD] (AR v2)Track 18 accurately ripped (confidence 3) [871C9992] (AR v2)Track 19 accurately ripped (confidence 3) [4DBDE949] (AR v2)Track 20 accurately ripped (confidence 3) [1FC44DFA] (AR v2)
All tracks accurately ripped
End of status report
==== Log checksum 1E6F07C1E6419CC697CACCCCA5DCD530DE4DFA52C0BB91811B00E84D9EE9736B ====

Лог создания рипа: CD13

Exact Audio Copy V1.1 from 23. June 2015
EAC extraction logfile from 21. April 2017, 21:48
Zuzana Ruzickova / Bach - The Complete Keyboard Works - CD13 - Toccatas
Used drive : TSSTcorpCD/DVDW SH-S182M Adapter: 1 ID: 1
Read mode : SecureUtilize accurate stream : YesDefeat audio cache : YesMake use of C2 pointers : No
Read offset correction : 6Overread into Lead-In and Lead-Out : NoFill up missing offset samples with silence : YesDelete leading and trailing silent blocks : NoNull samples used in CRC calculations : YesUsed interface : Native Win32 interface for Win NT & 2000
Used output format : User Defined EncoderSelected bitrate : 128 kBit/sQuality : HighAdd ID3 tag : NoCommand line compressor : C:\Program Files (x86)\Exact Audio Copy\Flac\flac.exeAdditional command line options : -V -8 -T "Date=%year%" -T "Genre=%genre%" %source%
TOC of the extracted CD
Track | Start | Length | Start sector | End sector --------------------------------------------------------- 1 | 0:00.00 | 11:23.17 | 0 | 51241 2 | 11:23.17 | 13:44.55 | 51242 | 113096 3 | 25:07.72 | 11:40.49 | 113097 | 165645 4 | 36:48.46 | 14:11.37 | 165646 | 229507 5 | 51:00.08 | 9:17.15 | 229508 | 271297 6 | 60:17.23 | 9:53.15 | 271298 | 315787 7 | 70:10.38 | 8:22.40 | 315788 | 353477
Range status and errors
Selected range
Filename C:\temp\Bach - The Complete Keyboard Works - Ruzickova\CD13\Bach - The Complete Keyboard Works - CD13.wav
Peak level 48.0 % Extraction speed 8.5 X Range quality 100.0 % Test CRC AC992590 Copy CRC AC992590 Copy OK
No errors occurred
AccurateRip summary
Track 1 accurately ripped (confidence 3) [566A70DA] (AR v2)Track 2 accurately ripped (confidence 3) [35EF581D] (AR v2)Track 3 accurately ripped (confidence 3) [671964A8] (AR v2)Track 4 accurately ripped (confidence 3) [EF5C99D6] (AR v2)Track 5 accurately ripped (confidence 3) [713EFB7B] (AR v2)Track 6 accurately ripped (confidence 3) [C791CBF4] (AR v2)Track 7 accurately ripped (confidence 3) [A3248EBD] (AR v2)
All tracks accurately ripped
End of status report
==== Log checksum D5E73AC867EFC11712910CD38A5D5B139751A21116FE97DB75A8AE8F79E44484 ====

Лог создания рипа: CD14

Exact Audio Copy V1.1 from 23. June 2015
EAC extraction logfile from 21. April 2017, 22:16
Zuzana Ruzickova / Bach - The Complete Keyboard Works - CD14
Used drive : TSSTcorpCD/DVDW SH-S182M Adapter: 1 ID: 1
Read mode : SecureUtilize accurate stream : YesDefeat audio cache : YesMake use of C2 pointers : No
Read offset correction : 6Overread into Lead-In and Lead-Out : NoFill up missing offset samples with silence : YesDelete leading and trailing silent blocks : NoNull samples used in CRC calculations : YesUsed interface : Native Win32 interface for Win NT & 2000
Used output format : User Defined EncoderSelected bitrate : 128 kBit/sQuality : HighAdd ID3 tag : NoCommand line compressor : C:\Program Files (x86)\Exact Audio Copy\Flac\flac.exeAdditional command line options : -V -8 -T "Date=%year%" -T "Genre=%genre%" %source%
TOC of the extracted CD
Track | Start | Length | Start sector | End sector --------------------------------------------------------- 1 | 0:00.00 | 1:40.45 | 0 | 7544 2 | 1:40.45 | 1:52.03 | 7545 | 15947 3 | 3:32.48 | 1:44.52 | 15948 | 23799 4 | 5:17.25 | 3:19.18 | 23800 | 38742 5 | 8:36.43 | 1:43.09 | 38743 | 46476 6 | 10:19.52 | 1:57.26 | 46477 | 55277 7 | 12:17.03 | 0:34.50 | 55278 | 57877 8 | 12:51.53 | 1:12.07 | 57878 | 63284 9 | 14:03.60 | 0:37.18 | 63285 | 66077 10 | 14:41.03 | 0:48.14 | 66078 | 69691 11 | 15:29.17 | 2:12.10 | 69692 | 79601 12 | 17:41.27 | 1:56.01 | 79602 | 88302 13 | 19:37.28 | 7:28.31 | 88303 | 121933 14 | 27:05.59 | 1:08.25 | 121934 | 127058 15 | 28:14.09 | 1:35.17 | 127059 | 134200 16 | 29:49.26 | 1:19.67 | 134201 | 140192 17 | 31:09.18 | 2:51.66 | 140193 | 153083 18 | 34:01.09 | 0:57.00 | 153084 | 157358 19 | 34:58.09 | 0:55.33 | 157359 | 161516 20 | 35:53.42 | 0:56.40 | 161517 | 165756 21 | 36:50.07 | 1:10.41 | 165757 | 171047 22 | 38:00.48 | 0:43.56 | 171048 | 174328 23 | 38:44.29 | 1:18.61 | 174329 | 180239 24 | 40:03.15 | 1:44.09 | 180240 | 188048 25 | 41:47.24 | 1:06.37 | 188049 | 193035 26 | 42:53.61 | 1:26.05 | 193036 | 199490 27 | 44:19.66 | 1:02.50 | 199491 | 204190 28 | 45:22.41 | 2:08.73 | 204191 | 213863 29 | 47:31.39 | 2:30.36 | 213864 | 225149 30 | 50:02.00 | 2:08.67 | 225150 | 234816 31 | 52:10.67 | 3:30.63 | 234817 | 250629 32 | 55:41.55 | 1:23.67 | 250630 | 256921 33 | 57:05.47 | 3:46.08 | 256922 | 273879 34 | 60:51.55 | 1:28.64 | 273880 | 280543 35 | 62:20.44 | 2:20.38 | 280544 | 291081 36 | 64:41.07 | 3:20.66 | 291082 | 306147 37 | 68:01.73 | 2:30.18 | 306148 | 317415 38 | 70:32.16 | 1:22.45 | 317416 | 323610 39 | 71:54.61 | 1:48.35 | 323611 | 331745 40 | 73:43.21 | 3:29.66 | 331746 | 347486 41 | 77:13.12 | 1:41.27 | 347487 | 355088
Range status and errors
Selected range
Filename C:\temp\Bach - The Complete Keyboard Works - Ruzickova\CD14\Bach - The Complete Keyboard Works - CD14.wav
Peak level 44.0 % Extraction speed 8.8 X Range quality 100.0 % Test CRC DB03DFC2 Copy CRC DB03DFC2 Copy OK
No errors occurred
AccurateRip summary
Track 1 accurately ripped (confidence 3) [BF167909] (AR v2)Track 2 accurately ripped (confidence 3) [1003C49B] (AR v2)Track 3 accurately ripped (confidence 3) [035D09FA] (AR v2)Track 4 accurately ripped (confidence 3) [D880F5CA] (AR v2)Track 5 accurately ripped (confidence 3) [4581022D] (AR v2)Track 6 accurately ripped (confidence 3) [179EA4AE] (AR v2)Track 7 accurately ripped (confidence 3) [BFAB9FD4] (AR v2)Track 8 accurately ripped (confidence 3) [346F8EB8] (AR v2)Track 9 accurately ripped (confidence 3) [1E464B44] (AR v2)Track 10 accurately ripped (confidence 3) [62925540] (AR v2)Track 11 accurately ripped (confidence 3) [CF8440DC] (AR v2)Track 12 accurately ripped (confidence 3) [D64A3F97] (AR v2)Track 13 accurately ripped (confidence 3) [DD25845E] (AR v2)Track 14 accurately ripped (confidence 3) [9E6E7444] (AR v2)Track 15 accurately ripped (confidence 3) [36F2B0C7] (AR v2)Track 16 accurately ripped (confidence 3) [B0F6EA36] (AR v2)Track 17 accurately ripped (confidence 3) [E7A232D1] (AR v2)Track 18 accurately ripped (confidence 3) [5355BC51] (AR v2)Track 19 accurately ripped (confidence 3) [C1F0D17A] (AR v2)Track 20 accurately ripped (confidence 3) [27FE4D5C] (AR v2)Track 21 accurately ripped (confidence 3) [2983860C] (AR v2)Track 22 accurately ripped (confidence 3) [8520D7C7] (AR v2)Track 23 accurately ripped (confidence 3) [0A95F22D] (AR v2)Track 24 accurately ripped (confidence 3) [98630CC4] (AR v2)Track 25 accurately ripped (confidence 3) [76C32C0F] (AR v2)Track 26 accurately ripped (confidence 3) [7837EDA0] (AR v2)Track 27 accurately ripped (confidence 3) [FB57F635] (AR v2)Track 28 accurately ripped (confidence 3) [C4BBB954] (AR v2)Track 29 accurately ripped (confidence 3) [958792A4] (AR v2)Track 30 accurately ripped (confidence 3) [D45BB904] (AR v2)Track 31 accurately ripped (confidence 3) [63113B6A] (AR v2)Track 32 accurately ripped (confidence 3) [19992BF0] (AR v2)Track 33 accurately ripped (confidence 3) [05B24C08] (AR v2)Track 34 accurately ripped (confidence 3) [3A96E2B6] (AR v2)Track 35 accurately ripped (confidence 3) [BC442F14] (AR v2)Track 36 accurately ripped (confidence 3) [0DC0078D] (AR v2)Track 37 accurately ripped (confidence 3) [D1D6262F] (AR v2)Track 38 accurately ripped (confidence 3) [BD4E2608] (AR v2)Track 39 accurately ripped (confidence 3) [65DA17FB] (AR v2)Track 40 accurately ripped (confidence 3) [61385723] (AR v2)Track 41 accurately ripped (confidence 3) [7E76F2C4] (AR v2)
All tracks accurately ripped
End of status report
==== Log checksum 325233C7193218250712B14CAF23712AE940E46210FFE527BEC597E2A87A2BD1 ====

Лог создания рипа: CD15

Exact Audio Copy V1.1 from 23. June 2015
EAC extraction logfile from 21. April 2017, 22:42
Zuzana Ruzickova / Bach - The Complete Keyboard Works - CD15
Used drive : TSSTcorpCD/DVDW SH-S182M Adapter: 1 ID: 1
Read mode : SecureUtilize accurate stream : YesDefeat audio cache : YesMake use of C2 pointers : No
Read offset correction : 6Overread into Lead-In and Lead-Out : NoFill up missing offset samples with silence : YesDelete leading and trailing silent blocks : NoNull samples used in CRC calculations : YesUsed interface : Native Win32 interface for Win NT & 2000
Used output format : User Defined EncoderSelected bitrate : 128 kBit/sQuality : HighAdd ID3 tag : NoCommand line compressor : C:\Program Files (x86)\Exact Audio Copy\Flac\flac.exeAdditional command line options : -V -8 -T "Date=%year%" -T "Genre=%genre%" %source%
TOC of the extracted CD
Track | Start | Length | Start sector | End sector --------------------------------------------------------- 1 | 0:00.00 | 2:39.03 | 0 | 11927 2 | 2:39.03 | 3:09.05 | 11928 | 26107 3 | 5:48.08 | 3:24.41 | 26108 | 41448 4 | 9:12.49 | 3:09.02 | 41449 | 55625 5 | 12:21.51 | 6:01.58 | 55626 | 82758 6 | 18:23.34 | 2:42.63 | 82759 | 94971 7 | 21:06.22 | 1:40.28 | 94972 | 102499 8 | 22:46.50 | 3:22.47 | 102500 | 117696 9 | 26:09.22 | 0:56.53 | 117697 | 121949 10 | 27:06.00 | 1:08.59 | 121950 | 127108 11 | 28:14.59 | 2:28.65 | 127109 | 138273 12 | 30:43.49 | 9:00.39 | 138274 | 178812 13 | 39:44.13 | 2:17.06 | 178813 | 189093 14 | 42:01.19 | 3:37.31 | 189094 | 205399 15 | 45:38.50 | 3:34.46 | 205400 | 221495 16 | 49:13.21 | 3:56.31 | 221496 | 239226 17 | 53:09.52 | 3:09.26 | 239227 | 253427 18 | 56:19.03 | 2:54.20 | 253428 | 266497 19 | 59:13.23 | 3:08.25 | 266498 | 280622 20 | 62:21.48 | 2:39.05 | 280623 | 292552 21 | 65:00.53 | 2:05.31 | 292553 | 301958 22 | 67:06.09 | 4:15.68 | 301959 | 321151 23 | 71:22.02 | 1:42.70 | 321152 | 328871 24 | 73:04.72 | 3:11.70 | 328872 | 343266 25 | 76:16.67 | 3:27.57 | 343267 | 358848
Range status and errors
Selected range
Filename C:\temp\Bach - The Complete Keyboard Works - Ruzickova\CD15\Bach - The Complete Keyboard Works - CD15.wav
Peak level 48.9 % Extraction speed 8.7 X Range quality 100.0 % Test CRC 7DFCF8EA Copy CRC 7DFCF8EA Copy OK
No errors occurred
AccurateRip summary
Track 1 accurately ripped (confidence 3) [AEE9B27E] (AR v2)Track 2 accurately ripped (confidence 3) [A5810F2E] (AR v2)Track 3 accurately ripped (confidence 3) [E0D2B7FB] (AR v2)Track 4 accurately ripped (confidence 3) [3AE93B89] (AR v2)Track 5 accurately ripped (confidence 3) [EC909A5C] (AR v2)Track 6 accurately ripped (confidence 3) [CAF67178] (AR v2)Track 7 accurately ripped (confidence 3) [90C3286E] (AR v2)Track 8 accurately ripped (confidence 3) [F1F5355E] (AR v2)Track 9 accurately ripped (confidence 3) [4D9AD3A4] (AR v2)Track 10 accurately ripped (confidence 3) [60B05613] (AR v2)Track 11 accurately ripped (confidence 3) [70FF8E89] (AR v2)Track 12 accurately ripped (confidence 3) [B2C81917] (AR v2)Track 13 accurately ripped (confidence 3) [98B79CDA] (AR v2)Track 14 accurately ripped (confidence 3) [6BAE51EC] (AR v2)Track 15 accurately ripped (confidence 3) [A250591B] (AR v2)Track 16 accurately ripped (confidence 3) [6400E85D] (AR v2)Track 17 accurately ripped (confidence 3) [892BB1EE] (AR v2)Track 18 accurately ripped (confidence 3) [EFE18A8D] (AR v2)Track 19 accurately ripped (confidence 3) [41C56F3E] (AR v2)Track 20 accurately ripped (confidence 3) [CACAA597] (AR v2)Track 21 accurately ripped (confidence 3) [15371459] (AR v2)Track 22 accurately ripped (confidence 3) [BB4CB88F] (AR v2)Track 23 accurately ripped (confidence 3) [40813C34] (AR v2)Track 24 accurately ripped (confidence 3) [5B0D2E76] (AR v2)Track 25 accurately ripped (confidence 3) [4419C074] (AR v2)
All tracks accurately ripped
End of status report
==== Log checksum 58B6E83599C7D096159B640C2EF4295552593DB1B778333BB51CBFC893948EBE ====

Лог создания рипа: CD16

Exact Audio Copy V1.1 from 23. June 2015
EAC extraction logfile from 21. April 2017, 23:07
Zuzana Ruzickova / Bach - The Complete Keyboard Works - CD16
Used drive : TSSTcorpCD/DVDW SH-S182M Adapter: 1 ID: 1
Read mode : SecureUtilize accurate stream : YesDefeat audio cache : YesMake use of C2 pointers : No
Read offset correction : 6Overread into Lead-In and Lead-Out : NoFill up missing offset samples with silence : YesDelete leading and trailing silent blocks : NoNull samples used in CRC calculations : YesUsed interface : Native Win32 interface for Win NT & 2000
Used output format : User Defined EncoderSelected bitrate : 128 kBit/sQuality : HighAdd ID3 tag : NoCommand line compressor : C:\Program Files (x86)\Exact Audio Copy\Flac\flac.exeAdditional command line options : -V -8 -T "Date=%year%" -T "Genre=%genre%" %source%
TOC of the extracted CD
Track | Start | Length | Start sector | End sector --------------------------------------------------------- 1 | 0:00.00 | 2:15.51 | 0 | 10175 2 | 2:15.51 | 1:36.30 | 10176 | 17405 3 | 3:52.06 | 1:14.30 | 17406 | 22985 4 | 5:06.36 | 1:13.17 | 22986 | 28477 5 | 6:19.53 | 1:15.33 | 28478 | 34135 6 | 7:35.11 | 1:06.52 | 34136 | 39137 7 | 8:41.63 | 1:25.40 | 39138 | 45552 8 | 10:07.28 | 0:59.23 | 45553 | 50000 9 | 11:06.51 | 1:04.11 | 50001 | 54811 10 | 12:10.62 | 0:59.45 | 54812 | 59281 11 | 13:10.32 | 2:27.40 | 59282 | 70346 12 | 15:37.72 | 1:24.21 | 70347 | 76667 13 | 17:02.18 | 6:48.45 | 76668 | 107312 14 | 23:50.63 | 5:18.20 | 107313 | 131182 15 | 29:09.08 | 3:10.72 | 131183 | 145504 16 | 32:20.05 | 3:17.35 | 145505 | 160314 17 | 35:37.40 | 4:09.65 | 160315 | 179054 18 | 39:47.30 | 3:54.44 | 179055 | 196648 19 | 43:41.74 | 2:15.21 | 196649 | 206794 20 | 45:57.20 | 3:13.21 | 206795 | 221290 21 | 49:10.41 | 5:56.71 | 221291 | 248061 22 | 55:07.37 | 4:59.51 | 248062 | 270537 23 | 60:07.13 | 4:17.04 | 270538 | 289816 24 | 64:24.17 | 4:59.20 | 289817 | 312261 25 | 69:23.37 | 5:24.25 | 312262 | 336586
Range status and errors
Selected range
Filename C:\temp\Bach - The Complete Keyboard Works - Ruzickova\CD16\Bach - The Complete Keyboard Works - CD16.wav
Peak level 49.9 % Extraction speed 8.1 X Range quality 100.0 % Test CRC F72C65E4 Copy CRC F72C65E4 Copy OK
No errors occurred
AccurateRip summary
Track 1 accurately ripped (confidence 2) [FBDDB38C] (AR v2)Track 2 accurately ripped (confidence 2) [DA13EB93] (AR v2)Track 3 accurately ripped (confidence 2) [D6046B6A] (AR v2)Track 4 accurately ripped (confidence 2) [D5CA7049] (AR v2)Track 5 accurately ripped (confidence 2) [29141A71] (AR v2)Track 6 accurately ripped (confidence 2) [BB503CF7] (AR v2)Track 7 accurately ripped (confidence 2) [F9223864] (AR v2)Track 8 accurately ripped (confidence 2) [D2DEC6E3] (AR v2)Track 9 accurately ripped (confidence 2) [0CC9CB87] (AR v2)Track 10 accurately ripped (confidence 2) [E9AF7C9E] (AR v2)Track 11 accurately ripped (confidence 2) [54454A94] (AR v2)Track 12 accurately ripped (confidence 2) [513352B1] (AR v2)Track 13 accurately ripped (confidence 2) [45AE0DE1] (AR v2)Track 14 accurately ripped (confidence 2) [9569CA9C] (AR v2)Track 15 accurately ripped (confidence 2) [F8D496E9] (AR v2)Track 16 accurately ripped (confidence 2) [37E4FE1A] (AR v2)Track 17 accurately ripped (confidence 2) [47624CE2] (AR v2)Track 18 accurately ripped (confidence 2) [C412325F] (AR v2)Track 19 accurately ripped (confidence 2) [5DD9052D] (AR v2)Track 20 accurately ripped (confidence 2) [C292994E] (AR v2)Track 21 accurately ripped (confidence 2) [F37377AE] (AR v2)Track 22 accurately ripped (confidence 2) [E464A8C7] (AR v2)Track 23 accurately ripped (confidence 2) [465B7B57] (AR v2)Track 24 accurately ripped (confidence 2) [C3EB8007] (AR v2)Track 25 accurately ripped (confidence 2) [9FB6D50B] (AR v2)
All tracks accurately ripped
End of status report
==== Log checksum 591CBBD66E5A9DC4003152F8E181979C0871C54AC27DDD8AC785C0080F0F184D ====

Лог создания рипа: CD17

Exact Audio Copy V1.1 from 23. June 2015
EAC extraction logfile from 21. April 2017, 23:54
Zuzana Ruzickova / Bach - The Complete Keyboard Works - CD17 - Harpsichord Concertos after Vivaldi
Used drive : TSSTcorpCD/DVDW SH-S182M Adapter: 1 ID: 1
Read mode : SecureUtilize accurate stream : YesDefeat audio cache : YesMake use of C2 pointers : No
Read offset correction : 6Overread into Lead-In and Lead-Out : NoFill up missing offset samples with silence : YesDelete leading and trailing silent blocks : NoNull samples used in CRC calculations : YesUsed interface : Native Win32 interface for Win NT & 2000
Used output format : User Defined EncoderSelected bitrate : 128 kBit/sQuality : HighAdd ID3 tag : NoCommand line compressor : C:\Program Files (x86)\Exact Audio Copy\Flac\flac.exeAdditional command line options : -V -8 -T "Date=%year%" -T "Genre=%genre%" %source%
TOC of the extracted CD
Track | Start | Length | Start sector | End sector --------------------------------------------------------- 1 | 0:00.00 | 2:43.14 | 0 | 12238 2 | 2:43.14 | 4:26.60 | 12239 | 32248 3 | 7:09.74 | 2:41.15 | 32249 | 44338 4 | 9:51.14 | 2:48.08 | 44339 | 56946 5 | 12:39.22 | 3:26.36 | 56947 | 72432 6 | 16:05.58 | 2:20.70 | 72433 | 83002 7 | 18:26.53 | 3:31.26 | 83003 | 98853 8 | 21:58.04 | 5:00.47 | 98854 | 121400 9 | 26:58.51 | 2:03.55 | 121401 | 130680 10 | 29:02.31 | 3:54.38 | 130681 | 148268 11 | 32:56.69 | 4:37.36 | 148269 | 169079 12 | 37:34.30 | 2:59.64 | 169080 | 182568 13 | 40:34.19 | 3:38.53 | 182569 | 198971 14 | 44:12.72 | 5:17.17 | 198972 | 222763 15 | 49:30.14 | 4:28.34 | 222764 | 242897
Range status and errors
Selected range
Filename C:\temp\Bach - The Complete Keyboard Works - Ruzickova\CD17\Bach - The Complete Keyboard Works - CD17.wav
Peak level 54.4 % Extraction speed 7.1 X Range quality 99.9 % Test CRC 4F04342D Copy CRC 4F04342D Copy OK
No errors occurred
AccurateRip summary
Track 1 accurately ripped (confidence 2) [76899D10] (AR v2)Track 2 accurately ripped (confidence 2) [3B5E746D] (AR v2)Track 3 accurately ripped (confidence 2) [35055968] (AR v2)Track 4 accurately ripped (confidence 2) [BDD5F8CF] (AR v2)Track 5 accurately ripped (confidence 2) [039FA6B4] (AR v2)Track 6 accurately ripped (confidence 2) [508DABD0] (AR v2)Track 7 accurately ripped (confidence 2) [8EF12455] (AR v2)Track 8 accurately ripped (confidence 2) [7685A3A3] (AR v2)Track 9 accurately ripped (confidence 2) [3ADB23B3] (AR v2)Track 10 accurately ripped (confidence 2) [7CAA1A69] (AR v2)Track 11 accurately ripped (confidence 2) [525C7BB2] (AR v2)Track 12 accurately ripped (confidence 2) [DEBD13DE] (AR v2)Track 13 accurately ripped (confidence 2) [CE07C812] (AR v2)Track 14 accurately ripped (confidence 2) [B14ED911] (AR v2)Track 15 accurately ripped (confidence 2) [2A0549DF] (AR v2)
All tracks accurately ripped
End of status report
==== Log checksum F150687C09A3B47B1E4205ADA9622F0FCF7E1254F045FB8E621C5619E8E8F52A ====

Лог создания рипа: CD18

Exact Audio Copy V1.1 from 23. June 2015
EAC extraction logfile from 22. April 2017, 0:23
Zuzana Ruzickova / Bach - The Complete Keyboard Works - CD18
Used drive : TSSTcorpCD/DVDW SH-S182M Adapter: 1 ID: 1
Read mode : SecureUtilize accurate stream : YesDefeat audio cache : YesMake use of C2 pointers : No
Read offset correction : 6Overread into Lead-In and Lead-Out : NoFill up missing offset samples with silence : YesDelete leading and trailing silent blocks : NoNull samples used in CRC calculations : YesUsed interface : Native Win32 interface for Win NT & 2000
Used output format : User Defined EncoderSelected bitrate : 128 kBit/sQuality : HighAdd ID3 tag : NoCommand line compressor : C:\Program Files (x86)\Exact Audio Copy\Flac\flac.exeAdditional command line options : -V -8 -T "Date=%year%" -T "Genre=%genre%" %source%
TOC of the extracted CD
Track | Start | Length | Start sector | End sector --------------------------------------------------------- 1 | 0:00.00 | 4:21.16 | 0 | 19590 2 | 4:21.16 | 3:44.51 | 19591 | 36441 3 | 8:05.67 | 2:59.18 | 36442 | 49884 4 | 11:05.10 | 3:21.48 | 49885 | 65007 5 | 14:26.58 | 2:01.16 | 65008 | 74098 6 | 16:27.74 | 3:51.66 | 74099 | 91489 7 | 20:19.65 | 4:18.45 | 91490 | 110884 8 | 24:38.35 | 4:29.07 | 110885 | 131066 9 | 29:07.42 | 5:21.17 | 131067 | 155158 10 | 34:28.59 | 5:56.57 | 155159 | 181915 11 | 40:25.41 | 4:06.73 | 181916 | 200438 12 | 44:32.39 | 4:39.13 | 200439 | 221376 13 | 49:11.52 | 3:20.32 | 221377 | 236408 14 | 52:32.09 | 3:38.74 | 236409 | 252832 15 | 56:11.08 | 4:01.34 | 252833 | 270941 16 | 60:12.42 | 3:45.71 | 270942 | 287887 17 | 63:58.38 | 3:44.74 | 287888 | 304761 18 | 67:43.37 | 3:44.27 | 304762 | 321588 19 | 71:27.64 | 5:17.62 | 321589 | 345425
Range status and errors
Selected range
Filename C:\temp\Bach - The Complete Keyboard Works - Ruzickova\CD18\Bach - The Complete Keyboard Works - CD18.wav
Peak level 61.1 % Extraction speed 8.6 X Range quality 100.0 % Test CRC AAFDF770 Copy CRC AAFDF770 Copy OK
No errors occurred
AccurateRip summary
Track 1 accurately ripped (confidence 2) [1E19C479] (AR v2)Track 2 accurately ripped (confidence 2) [A1CBFC6D] (AR v2)Track 3 accurately ripped (confidence 2) [696EE912] (AR v2)Track 4 accurately ripped (confidence 2) [F8773835] (AR v2)Track 5 accurately ripped (confidence 2) [D6BCF90F] (AR v2)Track 6 accurately ripped (confidence 2) [C5B9031E] (AR v2)Track 7 accurately ripped (confidence 2) [18DAE935] (AR v2)Track 8 accurately ripped (confidence 2) [B8E33509] (AR v2)Track 9 accurately ripped (confidence 2) [657DE37F] (AR v2)Track 10 accurately ripped (confidence 2) [65FD5059] (AR v2)Track 11 accurately ripped (confidence 2) [318E5E80] (AR v2)Track 12 accurately ripped (confidence 2) [BE91B6C6] (AR v2)Track 13 accurately ripped (confidence 2) [6F149433] (AR v2)Track 14 accurately ripped (confidence 2) [9F8A8A53] (AR v2)Track 15 accurately ripped (confidence 2) [C586F0FB] (AR v2)Track 16 accurately ripped (confidence 2) [31B231A1] (AR v2)Track 17 accurately ripped (confidence 2) [28B6358B] (AR v2)Track 18 accurately ripped (confidence 2) [E7F64FDA] (AR v2)Track 19 accurately ripped (confidence 2) [B90DE9F8] (AR v2)
All tracks accurately ripped
End of status report
==== Log checksum 11DC44110C4CC0FBDF1BF1F8DAE5876EAD21407F6398288BCD7ACCDD2984EB88 ====

Лог создания рипа: CD19

Exact Audio Copy V1.1 from 23. June 2015
EAC extraction logfile from 22. April 2017, 0:47
Josef Suk, Zuzana Ruzickova / Bach - The Complete Keyboard Works - CD19
Used drive : TSSTcorpCD/DVDW SH-S182M Adapter: 1 ID: 1
Read mode : SecureUtilize accurate stream : YesDefeat audio cache : YesMake use of C2 pointers : No
Read offset correction : 6Overread into Lead-In and Lead-Out : NoFill up missing offset samples with silence : YesDelete leading and trailing silent blocks : NoNull samples used in CRC calculations : YesUsed interface : Native Win32 interface for Win NT & 2000
Used output format : User Defined EncoderSelected bitrate : 128 kBit/sQuality : HighAdd ID3 tag : NoCommand line compressor : C:\Program Files (x86)\Exact Audio Copy\Flac\flac.exeAdditional command line options : -V -8 -T "Date=%year%" -T "Genre=%genre%" %source%
TOC of the extracted CD
Track | Start | Length | Start sector | End sector --------------------------------------------------------- 1 | 0:00.00 | 5:31.12 | 0 | 24836 2 | 5:31.12 | 3:13.48 | 24837 | 39359 3 | 8:44.60 | 5:56.11 | 39360 | 66070 4 | 14:40.71 | 4:31.59 | 66071 | 86454 5 | 19:12.55 | 5:27.35 | 86455 | 111014 6 | 24:40.15 | 4:57.61 | 111015 | 133350 7 | 29:38.01 | 4:04.41 | 133351 | 151691 8 | 33:42.42 | 5:14.54 | 151692 | 175295 9 | 38:57.21 | 8:06.43 | 175296 | 211788 10 | 47:03.64 | 5:15.36 | 211789 | 235449 11 | 52:19.25 | 5:29.57 | 235450 | 260181 12 | 57:49.07 | 2:39.45 | 260182 | 272151 13 | 60:28.52 | 3:56.05 | 272152 | 289856 14 | 64:24.57 | 2:05.60 | 289857 | 299291 15 | 66:30.42 | 4:02.34 | 299292 | 317475 16 | 70:33.01 | 3:08.68 | 317476 | 331643 17 | 73:41.69 | 3:59.59 | 331644 | 349627
Range status and errors
Selected range
Filename C:\temp\Bach - The Complete Keyboard Works - Ruzickova\CD19\Bach - The Complete Keyboard Works - CD19.wav
Peak level 60.2 % Extraction speed 8.6 X Range quality 100.0 % Test CRC DEDD348E Copy CRC DEDD348E Copy OK
No errors occurred
AccurateRip summary
Track 1 accurately ripped (confidence 2) [EBECD9FC] (AR v2)Track 2 accurately ripped (confidence 2) [2156C043] (AR v2)Track 3 accurately ripped (confidence 2) [C2B01826] (AR v2)Track 4 accurately ripped (confidence 2) [4BF02413] (AR v2)Track 5 accurately ripped (confidence 2) [CA487FF7] (AR v2)Track 6 accurately ripped (confidence 2) [7270FDD0] (AR v2)Track 7 accurately ripped (confidence 2) [54AEE4CA] (AR v2)Track 8 accurately ripped (confidence 2) [C40D61BD] (AR v2)Track 9 accurately ripped (confidence 2) [7C982E86] (AR v2)Track 10 accurately ripped (confidence 2) [37FB6B50] (AR v2)Track 11 accurately ripped (confidence 2) [5D6B4805] (AR v2)Track 12 accurately ripped (confidence 2) [E120F40E] (AR v2)Track 13 accurately ripped (confidence 2) [31EE7E96] (AR v2)Track 14 accurately ripped (confidence 2) [17FED25E] (AR v2)Track 15 accurately ripped (confidence 2) [FB9BB4C7] (AR v2)Track 16 accurately ripped (confidence 2) [161ABF3E] (AR v2)Track 17 accurately ripped (confidence 2) [12DB20E4] (AR v2)
All tracks accurately ripped
End of status report
==== Log checksum 7BF6781630E61274CCD8B2881AA6CA24E1D926501D69A8A2A9BA40F3C2A9DCB2 ====

Лог создания рипа: CD20

Exact Audio Copy V1.1 from 23. June 2015
EAC extraction logfile from 22. April 2017, 1:07
Jean-Pierre Rampal, Josef Suk, Zuzana Ruzickova, Prague Soloists, Eduard Fischer / Bach - The Complete Keyboard Works - CD20
Used drive : TSSTcorpCD/DVDW SH-S182M Adapter: 1 ID: 1
Read mode : SecureUtilize accurate stream : YesDefeat audio cache : YesMake use of C2 pointers : No
Read offset correction : 6Overread into Lead-In and Lead-Out : NoFill up missing offset samples with silence : YesDelete leading and trailing silent blocks : NoNull samples used in CRC calculations : YesUsed interface : Native Win32 interface for Win NT & 2000
Used output format : User Defined EncoderSelected bitrate : 128 kBit/sQuality : HighAdd ID3 tag : NoCommand line compressor : C:\Program Files (x86)\Exact Audio Copy\Flac\flac.exeAdditional command line options : -V -8 -T "Date=%year%" -T "Genre=%genre%" %source%
TOC of the extracted CD
Track | Start | Length | Start sector | End sector --------------------------------------------------------- 1 | 0:00.00 | 9:44.49 | 0 | 43848 2 | 9:44.49 | 7:03.72 | 43849 | 75645 3 | 16:48.46 | 7:39.37 | 75646 | 110107 4 | 24:28.08 | 11:22.36 | 110108 | 161293 5 | 35:50.44 | 6:30.43 | 161294 | 190586 6 | 42:21.12 | 5:58.17 | 190587 | 217453
Range status and errors
Selected range
Filename C:\temp\Bach - The Complete Keyboard Works - Ruzickova\CD20\Bach - The Complete Keyboard Works - CD20.wav
Peak level 69.1 % Extraction speed 6.9 X Range quality 99.9 % Test CRC D1191F6A Copy CRC D1191F6A Copy OK
No errors occurred
AccurateRip summary
Track 1 accurately ripped (confidence 2) [E44B1C5E] (AR v2)Track 2 accurately ripped (confidence 2) [25FE9243] (AR v2)Track 3 accurately ripped (confidence 2) [41917D0E] (AR v2)Track 4 accurately ripped (confidence 2) [86859B23] (AR v2)Track 5 accurately ripped (confidence 2) [783DF3FC] (AR v2)Track 6 accurately ripped (confidence 2) [CC1CDD7F] (AR v2)
All tracks accurately ripped
End of status report
==== Log checksum FE8E2B2C3156496F8772F892F880A21DB4DC4DDEF231F09DFFF695C1D7332FE8 ====
Вы не можете начинать темы
Вы не можете отвечать на сообщения
Вы не можете редактировать свои сообщения
Вы не можете удалять свои сообщения
Вы не можете голосовать в опросах
Вы не можете прикреплять файлы к сообщениям
Вы можете скачивать файлы