Grand Theft Auto V (Rgh-Jtag)(14.1 Gb)(Español) | Дом Рэйвен / Raven's Home [02x01-06 из 13] (2018) HDTVRip 720p | ColdFilm | Link Video

(R&B) [CD] Kelis - Kelis Was Here - 2006, FLAC (tracks+.cue), lossless 

Цитировать
Kelis / Kelis Was Here
Жанр: R&B
Носитель: CD
Страна-производитель диска (релиза): Russia
Год издания: 2006
Издатель (лейбл): LaFace/SBA/Gala Records Inc.
Номер по каталогу: 094637913826
Аудиокодек: FLAC (*.flac)
Тип рипа: tracks+.cue
Битрейт аудио: lossless
Продолжительность: 1:16:39.
Источник (релизер): clustert
Наличие сканов в содержимом раздачи: да
Треклист:
01. Intro [0:01:27.48]
02. Blindfold Me (feat. Nas) [0:04:19.01]
03. Bossy (feat. Too $hort) [0:04:33.73]
04. Fire (feat. Spragga) [0:03:31.64]
05. I Don't Think So [0:03:02.73]
06. Weekend [0:04:42.52]
07. Trilogy [0:03:56.15]
08. Appreciate Me [0:04:02.72]
09. Till The Wheels Fall Off [0:04:13.39]
10. Handful [0:02:59.65]
11. Aww S***! (feat. Smoke) [0:04:09.20]
12. What's That Right There [0:04:18.11]
13. Circus [0:04:40.33]
14. Lil Star (feat. Cee-Lo) [0:04:52.29]
15. Like You [0:03:01.65]
16. Living Proof [0:03:41.59]
17. Goodbyes [0:04:42.35]
18. Have A Nice Day [0:06:33.37]
19. Fuck Them Bitches (Clean) [Unlisted Track] [0:03:49.10]

Лог создания рипа

Exact Audio Copy V1.0 beta 3 from 29. August 2011
Отчёт EAC об извлечении, выполненном 11. апреля 2018, 23:43
Kelis / Kelis Was Here
Дисковод: ASUS DRW-1814BLT Adapter: 5 ID: 0
Режим чтения : ДостоверностьИспользование точного потока : ДаОтключение кэша аудио : ДаИспользование указателей C2 : Нет
Коррекция смещения при чтении : 6Способность читать области Lead-in и Lead-out : НетЗаполнение пропущенных сэмплов тишиной : ДаУдаление блоков с тишиной в начале и конце : НетПри вычислениях CRC использовались нулевые сэмплы : ДаИнтерфейс : Встроенный Win32-интерфейс для Win NT/2000Обработка зазоров : Добавлено к предыдущему треку
Выходной формат : Пользовательский кодировщикВыбранный битрейт : 128 kBit/sКачество : ВысокийДобавление ID3-тега : НетУтилита сжатия : C:\Program Files\Exact Audio Copy\Flac\flac.exeДополнительные параметры : -V -8 -T "Genre=%genre%" -T "Artist=%artist%" -T "Title=%title%" -T "Album=%albumtitle%" -T "Date=%year%" -T "Tracknumber=%tracknr%" -T "Comment=EAC1.0b2 FLAC -8" %source%
TOC извлечённого CD
Трек | Старт | Длительность | Начальный сектор | Конечный сектор --------------------------------------------------------------------- 1 | 0:00.00 | 1:27.48 | 0 | 6572 2 | 1:27.48 | 4:19.01 | 6573 | 25998 3 | 5:46.49 | 4:33.73 | 25999 | 46546 4 | 10:20.47 | 3:31.64 | 46547 | 62435 5 | 13:52.36 | 3:02.73 | 62436 | 76158 6 | 16:55.34 | 4:42.52 | 76159 | 97360 7 | 21:38.11 | 3:56.15 | 97361 | 115075 8 | 25:34.26 | 4:02.72 | 115076 | 133297 9 | 29:37.23 | 4:13.39 | 133298 | 152311 10 | 33:50.62 | 2:59.65 | 152312 | 165801 11 | 36:50.52 | 4:09.20 | 165802 | 184496 12 | 40:59.72 | 4:18.11 | 184497 | 203857 13 | 45:18.08 | 4:40.33 | 203858 | 224890 14 | 49:58.41 | 4:52.29 | 224891 | 246819 15 | 54:50.70 | 3:01.65 | 246820 | 260459 16 | 57:52.60 | 3:41.59 | 260460 | 277093 17 | 61:34.44 | 4:42.35 | 277094 | 298278 18 | 66:17.04 | 6:33.37 | 298279 | 327790 19 | 72:50.41 | 3:49.10 | 327791 | 344975
Трек 1
Имя файла R:\Раздача 77\Kelis - 2006 - Was Here\01 Intro .wav
Длина предзазора 0:00:02.00
Пиковый уровень 90.7 % Скорость извлечения 2.2 X Качество трека 99.8 % CRC теста 0FEA7314 CRC копии 0FEA7314 Точность не определена (достоверность 36) [D84BB995], AccurateRip вернул [F744CE5D] (AR v2) Копирование... OK
Трек 2
Имя файла R:\Раздача 77\Kelis - 2006 - Was Here\02 Blindfold Me (feat. Nas) .wav
Пиковый уровень 98.8 % Скорость извлечения 5.0 X Качество трека 100.0 % CRC теста 4AE6A015 CRC копии 4AE6A015 Точность не определена (достоверность 36) [45564458], AccurateRip вернул [4C7B2B68] (AR v2) Копирование... OK
Трек 3
Имя файла R:\Раздача 77\Kelis - 2006 - Was Here\03 Bossy (feat. Too $hort) .wav
Пиковый уровень 98.8 % Скорость извлечения 5.4 X Качество трека 100.0 % CRC теста A3E3F29A CRC копии A3E3F29A Точность не определена (достоверность 36) [9E2F3442], AccurateRip вернул [0B27FE0E] (AR v2) Копирование... OK
Трек 4
Имя файла R:\Раздача 77\Kelis - 2006 - Was Here\04 Fire (feat. Spragga) .wav
Пиковый уровень 97.7 % Скорость извлечения 5.6 X Качество трека 100.0 % CRC теста 566031BE CRC копии 566031BE Точность не определена (достоверность 36) [2CBDAAE4], AccurateRip вернул [87A9BD48] (AR v2) Копирование... OK
Трек 5
Имя файла R:\Раздача 77\Kelis - 2006 - Was Here\05 I Don't Think So .wav
Пиковый уровень 98.8 % Скорость извлечения 5.7 X Качество трека 100.0 % CRC теста 69B3C96E CRC копии 69B3C96E Точность не определена (достоверность 35) [63361BFB], AccurateRip вернул [44777A4F] (AR v2) Копирование... OK
Трек 6
Имя файла R:\Раздача 77\Kelis - 2006 - Was Here\06 Weekend .wav
Пиковый уровень 98.8 % Скорость извлечения 6.4 X Качество трека 100.0 % CRC теста 8E8DAC11 CRC копии 8E8DAC11 Точность не определена (достоверность 34) [8707E7D0], AccurateRip вернул [91D8BF26] (AR v2) Копирование... OK
Трек 7
Имя файла R:\Раздача 77\Kelis - 2006 - Was Here\07 Trilogy .wav
Пиковый уровень 98.8 % Скорость извлечения 6.6 X Качество трека 100.0 % CRC теста E7B80E58 CRC копии E7B80E58 Точность не определена (достоверность 33) [856DBD9A], AccurateRip вернул [25BE07CC] (AR v2) Копирование... OK
Трек 8
Имя файла R:\Раздача 77\Kelis - 2006 - Was Here\08 Appreciate Me .wav
Пиковый уровень 98.8 % Скорость извлечения 6.9 X Качество трека 100.0 % CRC теста F5F6DED9 CRC копии F5F6DED9 Точность не определена (достоверность 34) [0FAF49FD], AccurateRip вернул [8199BE7F] (AR v2) Копирование... OK
Трек 9
Имя файла R:\Раздача 77\Kelis - 2006 - Was Here\09 Till The Wheels Fall Off .wav
Пиковый уровень 98.8 % Скорость извлечения 7.2 X Качество трека 100.0 % CRC теста 9B5FF04C CRC копии 9B5FF04C Точность не определена (достоверность 33) [67D6C9EF], AccurateRip вернул [A39066F1] (AR v2) Копирование... OK
Трек 10
Имя файла R:\Раздача 77\Kelis - 2006 - Was Here\10 Handful .wav
Пиковый уровень 98.8 % Скорость извлечения 7.0 X Качество трека 100.0 % CRC теста A67369B5 CRC копии A67369B5 Точность не определена (достоверность 34) [E57CFF69], AccurateRip вернул [A987C57D] (AR v2) Копирование... OK
Трек 11
Имя файла R:\Раздача 77\Kelis - 2006 - Was Here\11 Aww Sxxx! (feat. Smoke) .wav
Пиковый уровень 98.8 % Скорость извлечения 7.7 X Качество трека 100.0 % CRC теста F4BE0ABC CRC копии F4BE0ABC Точность не определена (достоверность 33) [5CF9814D], AccurateRip вернул [6420DCEA] (AR v2) Копирование... OK
Трек 12
Имя файла R:\Раздача 77\Kelis - 2006 - Was Here\12 What's That Right There .wav
Пиковый уровень 98.8 % Скорость извлечения 8.0 X Качество трека 100.0 % CRC теста 8D42DC64 CRC копии 8D42DC64 Точность не определена (достоверность 33) [7996CBD7], AccurateRip вернул [0C0A93EE] (AR v2) Копирование... OK
Трек 13
Имя файла R:\Раздача 77\Kelis - 2006 - Was Here\13 Circus .wav
Пиковый уровень 98.8 % Скорость извлечения 8.3 X Качество трека 100.0 % CRC теста 0244C020 CRC копии 0244C020 Точность не определена (достоверность 33) [116AD782], AccurateRip вернул [EA1FD493] (AR v2) Копирование... OK
Трек 14
Имя файла R:\Раздача 77\Kelis - 2006 - Was Here\14 Lil Star (feat. Cee-Lo) .wav
Пиковый уровень 98.8 % Скорость извлечения 8.6 X Качество трека 100.0 % CRC теста 18283041 CRC копии 18283041 Точность не определена (достоверность 33) [B59E2FF7], AccurateRip вернул [51B424E1] (AR v2) Копирование... OK
Трек 15
Имя файла R:\Раздача 77\Kelis - 2006 - Was Here\15 Like You .wav
Длина предзазора 0:00:01.00
Пиковый уровень 98.8 % Скорость извлечения 8.2 X Качество трека 100.0 % CRC теста 445424F0 CRC копии 445424F0 Точность не определена (достоверность 33) [BD2B7A91], AccurateRip вернул [7D478986] (AR v2) Копирование... OK
Трек 16
Имя файла R:\Раздача 77\Kelis - 2006 - Was Here\16 Living Proof .wav
Длина предзазора 0:00:01.00
Пиковый уровень 98.8 % Скорость извлечения 6.2 X Качество трека 99.9 % CRC теста B9109D1A CRC копии B9109D1A Точность не определена (достоверность 34) [A4B35F77], AccurateRip вернул [78DB3361] (AR v2) Копирование... OK
Трек 17
Имя файла R:\Раздача 77\Kelis - 2006 - Was Here\17 Goodbyes .wav
Пиковый уровень 98.8 % Скорость извлечения 9.1 X Качество трека 100.0 % CRC теста D263E20F CRC копии D263E20F Точность не определена (достоверность 33) [602CD6D7], AccurateRip вернул [BD4D5F5F] (AR v2) Копирование... OK
Трек 18
Имя файла R:\Раздача 77\Kelis - 2006 - Was Here\18 Have A Nice Day .wav
Пиковый уровень 98.8 % Скорость извлечения 9.8 X Качество трека 100.0 % CRC теста 85AA66E0 CRC копии 85AA66E0 Точность не определена (достоверность 33) [AB5E3B2B], AccurateRip вернул [4DDDCB79] (AR v2) Копирование... OK
Трек 19
Имя файла R:\Раздача 77\Kelis - 2006 - Was Here\19 Fuck Them Bitches (Clean) [Unlisted Track] .wav
Длина предзазора 0:01:00.04
Пиковый уровень 98.8 % Скорость извлечения 9.4 X Качество трека 100.0 % CRC теста B4FC87AE CRC копии B4FC87AE Точность не определена (достоверность 31) [5390261B], AccurateRip вернул [3D4DE931] (AR v2) Копирование... OK
Ни один трек не прошёл проверки на точностьВ вашей базе может быть иной вариант штамповки диска
Ошибок не произошло
Конец отчёта
==== Контрольная сумма отчёта 4B44BEF732C120BCEEA594AB1F53290B6ED57017CC1E85D866DC88D0BAAEDF85 ====

Содержание индексной карты (.CUE)

REM GENRE R&BREM DATE 2006REM DISCID FE11F713REM COMMENT "ExactAudioCopy v1.0b3"CATALOG 0094636320625PERFORMER "Kelis"TITLE "Kelis Was Here"FILE "01 Intro .wav" WAVE  TRACK 01 AUDIO    TITLE "Intro"    PERFORMER "Kelis"    ISRC H2AS10600432    INDEX 01 00:00:00FILE "02 Blindfold Me (feat. Nas) .wav" WAVE  TRACK 02 AUDIO    TITLE "Blindfold Me (feat. Nas)"    PERFORMER "Kelis"    ISRC H2AS10600847    INDEX 01 00:00:00FILE "03 Bossy (feat. Too $hort) .wav" WAVE  TRACK 03 AUDIO    TITLE "Bossy (feat. Too $hort)"    PERFORMER "Kelis"    ISRC [email protected]    INDEX 01 00:00:00FILE "04 Fire (feat. Spragga) .wav" WAVE  TRACK 04 AUDIO    TITLE "Fire (feat. Spragga)"    PERFORMER "Kelis"    ISRC H2AS10600848    INDEX 01 00:00:00FILE "05 I Don't Think So .wav" WAVE  TRACK 05 AUDIO    TITLE "I Don't Think So"    PERFORMER "Kelis"    ISRC H2AS10600421    INDEX 01 00:00:00FILE "06 Weekend .wav" WAVE  TRACK 06 AUDIO    TITLE "Weekend"    PERFORMER "Kelis"    ISRC H2AS10600418    INDEX 01 00:00:00FILE "07 Trilogy .wav" WAVE  TRACK 07 AUDIO    TITLE "Trilogy"    PERFORMER "Kelis"    ISRC H2AS10600416    INDEX 01 00:00:00FILE "08 Appreciate Me .wav" WAVE  TRACK 08 AUDIO    TITLE "Appreciate Me"    PERFORMER "Kelis"    ISRC H2AS10600431    INDEX 01 00:00:00FILE "09 Till The Wheels Fall Off .wav" WAVE  TRACK 09 AUDIO    TITLE "Till The Wheels Fall Off"    PERFORMER "Kelis"    ISRC H2AS10600412    INDEX 01 00:00:00FILE "10 Handful .wav" WAVE  TRACK 10 AUDIO    TITLE "Handful"    PERFORMER "Kelis"    ISRC H2AS10600430    INDEX 01 00:00:00FILE "11 Aww Sxxx! (feat. Smoke) .wav" WAVE  TRACK 11 AUDIO    TITLE "Aww S***! (feat. Smoke)"    PERFORMER "Kelis"    ISRC H2AS10600419    INDEX 01 00:00:00FILE "12 What's That Right There .wav" WAVE  TRACK 12 AUDIO    TITLE "What's That Right There"    PERFORMER "Kelis"    ISRC H2AS10600426    INDEX 01 00:00:00FILE "13 Circus .wav" WAVE  TRACK 13 AUDIO    TITLE "Circus"    PERFORMER "Kelis"    ISRC H2AS10600417    INDEX 01 00:00:00FILE "14 Lil Star (feat. Cee-Lo) .wav" WAVE  TRACK 14 AUDIO    TITLE "Lil Star (feat. Cee-Lo)"    PERFORMER "Kelis"    ISRC H2AS10600420    INDEX 01 00:00:00  TRACK 15 AUDIO    TITLE "Like You"    PERFORMER "Kelis"    ISRC H2AS10600427    INDEX 00 04:51:29FILE "15 Like You .wav" WAVE    INDEX 01 00:00:00  TRACK 16 AUDIO    TITLE "Living Proof"    PERFORMER "Kelis"    ISRC H2AS10600413    INDEX 00 03:00:65FILE "16 Living Proof .wav" WAVE    INDEX 01 00:00:00FILE "17 Goodbyes .wav" WAVE  TRACK 17 AUDIO    TITLE "Goodbyes"    PERFORMER "Kelis"    ISRC H2AS10600415    INDEX 01 00:00:00FILE "18 Have A Nice Day .wav" WAVE  TRACK 18 AUDIO    TITLE "Have A Nice Day"    PERFORMER "Kelis"    ISRC H2AS10600424    INDEX 01 00:00:00  TRACK 19 AUDIO    TITLE "Fuck Them Bitches (Clean) [Unlisted Track]"    PERFORMER "Kelis"    ISRC H2AS10600433    INDEX 00 05:33:33FILE "19 Fuck Them Bitches (Clean) [Unlisted Track] .wav" WAVE    INDEX 01 00:00:00
Вы не можете начинать темы
Вы не можете отвечать на сообщения
Вы не можете редактировать свои сообщения
Вы не можете удалять свои сообщения
Вы не можете голосовать в опросах
Вы не можете прикреплять файлы к сообщениям
Вы можете скачивать файлы