Mac Applications | Naruyouni Narusa | CALL OF DUTY ADVANCED WARFARE UPDATE 1-RELOADED

(experimental) [CD] Hundred Waters - The Moon Rang Like a Bell - 2014, FLAC (tracks+.cue), lossless 

Цитировать
Hundred Waters / The Moon Rang Like a Bell
Жанр: experimental
Носитель: CD
Страна-производитель диска (релиза): USA
Год издания: 2014
Издатель (лейбл): OWSLA
Номер по каталогу: B00JGWKQDE
Страна исполнителя (группы): USA
Аудиокодек: FLAC (*.flac)
Тип рипа: tracks+.cue
Битрейт аудио: lossless
Источник (релизер): slsk
Наличие сканов в содержимом раздачи: нет
Треклист:
01. Hundred Waters - Show Me Love (01:16)
02. Hundred Waters - Murmurs (03:30)
03. Hundred Waters - Cavity (03:18)
04. Hundred Waters - Out Alee (04:32)
05. Hundred Waters - Innocent (04:40)
06. Hundred Waters - Broken Blue (04:24)
07. Hundred Waters - Chambers (Passing Train) (04:44)
08. Hundred Waters - Down From The Rafters (04:28)
09. Hundred Waters - [Animal] (03:47)
10. Hundred Waters - Seven White Horses (04:22)
11. Hundred Waters - Xtalk (03:50)
12. Hundred Waters - No Sound (06:03)

Лог создания рипа

X Lossless Decoder version 20140504 (147.0)
XLD extraction logfile from 2014-05-12 16:19:58 -0400
Hundred Waters / The Moon Rang Like a Bell
Used drive : MATSHITA DVD-R UJ-8A8 (revision HB14)Media type : Pressed CD
Ripper mode : XLD Secure RipperDisable audio cache : OK for the drive with a cache less than 1375KiBMake use of C2 pointers : NORead offset correction : 102Max retry count : 20Gap status : Analyzed, Appended (except HTOA)
TOC of the extracted CD Track | Start | Length | Start sector | End sector --------------------------------------------------------- 1 | 00:00:00 | 01:15:50 | 0 | 5674 2 | 01:15:50 | 03:29:71 | 5675 | 21420 3 | 04:45:46 | 03:17:35 | 21421 | 36230 4 | 08:03:06 | 04:32:15 | 36231 | 56645 5 | 12:35:21 | 04:39:20 | 56646 | 77590 6 | 17:14:41 | 04:23:28 | 77591 | 97343 7 | 21:37:69 | 04:44:05 | 97344 | 118648 8 | 26:21:74 | 04:28:02 | 118649 | 138750 9 | 30:50:01 | 03:46:63 | 138751 | 155763 10 | 34:36:64 | 04:22:14 | 155764 | 175427 11 | 38:59:03 | 03:50:10 | 175428 | 192687 12 | 42:49:13 | 06:02:13 | 192688 | 219850
AccurateRip Summary Disc not found in AccurateRip DB.
All Tracks Album gain : -7.90 dB Peak : 0.975403 Statistics Read error : 0 Jitter error (maybe fixed) : 0 Retry sector count : 0 Damaged sector count : 0
Track 01 Filename : /Users/trevormorrison/Desktop/Torrent Files/Hundred Waters - The Moon Rang Like a Bell (2014) [FLAC]/01 Show Me Love.flac Pre-gap length : 00:02:00
Track gain : -5.29 dB Peak : 0.908051 CRC32 hash (test run) : 91D417B4 CRC32 hash : 91D417B4 CRC32 hash (skip zero) : 8ACDE459 AccurateRip v1 signature : 235DA82C AccurateRip v2 signature : CDAC2562 ->Track not present in AccurateRip database. Statistics Read error : 0 Jitter error (maybe fixed) : 0 Retry sector count : 0 Damaged sector count : 0
Track 02 Filename : /Users/trevormorrison/Desktop/Torrent Files/Hundred Waters - The Moon Rang Like a Bell (2014) [FLAC]/02 Murmurs.flac
Track gain : -7.46 dB Peak : 0.951935 CRC32 hash (test run) : D052AC5D CRC32 hash : D052AC5D CRC32 hash (skip zero) : 534ECCD5 AccurateRip v1 signature : DD58A37D AccurateRip v2 signature : A27B3B15 ->Track not present in AccurateRip database. Statistics Read error : 0 Jitter error (maybe fixed) : 0 Retry sector count : 0 Damaged sector count : 0
Track 03 Filename : /Users/trevormorrison/Desktop/Torrent Files/Hundred Waters - The Moon Rang Like a Bell (2014) [FLAC]/03 Cavity.flac
Track gain : -8.99 dB Peak : 0.953186 CRC32 hash (test run) : F9A9138A CRC32 hash : F9A9138A CRC32 hash (skip zero) : 62019DB6 AccurateRip v1 signature : 034EE5B4 AccurateRip v2 signature : C4965678 ->Track not present in AccurateRip database. Statistics Read error : 0 Jitter error (maybe fixed) : 0 Retry sector count : 0 Damaged sector count : 0
Track 04 Filename : /Users/trevormorrison/Desktop/Torrent Files/Hundred Waters - The Moon Rang Like a Bell (2014) [FLAC]/04 Out Alee.flac
Track gain : -7.74 dB Peak : 0.961304 CRC32 hash (test run) : 955618F9 CRC32 hash : 955618F9 CRC32 hash (skip zero) : A03371F3 AccurateRip v1 signature : A8159332 AccurateRip v2 signature : 83095EF3 ->Track not present in AccurateRip database. Statistics Read error : 0 Jitter error (maybe fixed) : 0 Retry sector count : 0 Damaged sector count : 0
Track 05 Filename : /Users/trevormorrison/Desktop/Torrent Files/Hundred Waters - The Moon Rang Like a Bell (2014) [FLAC]/05 Innocent.flac
Track gain : -6.82 dB Peak : 0.975403 CRC32 hash (test run) : 7FABE036 CRC32 hash : 7FABE036 CRC32 hash (skip zero) : 608B8232 AccurateRip v1 signature : 41C89DA1 AccurateRip v2 signature : 78828F01 ->Track not present in AccurateRip database. Statistics Read error : 0 Jitter error (maybe fixed) : 0 Retry sector count : 0 Damaged sector count : 0
Track 06 Filename : /Users/trevormorrison/Desktop/Torrent Files/Hundred Waters - The Moon Rang Like a Bell (2014) [FLAC]/06 Broken Blue.flac
Track gain : -6.28 dB Peak : 0.945312 CRC32 hash (test run) : A8A67625 CRC32 hash : A8A67625 CRC32 hash (skip zero) : FEC22B05 AccurateRip v1 signature : 81C80639 AccurateRip v2 signature : BB0D8B2E ->Track not present in AccurateRip database. Statistics Read error : 0 Jitter error (maybe fixed) : 0 Retry sector count : 0 Damaged sector count : 0
Track 07 Filename : /Users/trevormorrison/Desktop/Torrent Files/Hundred Waters - The Moon Rang Like a Bell (2014) [FLAC]/07 Chambers (Passing Train).flac
Track gain : -3.81 dB Peak : 0.923004 CRC32 hash (test run) : DBAA39D8 CRC32 hash : DBAA39D8 CRC32 hash (skip zero) : 0EBEBA52 AccurateRip v1 signature : 25BACD29 AccurateRip v2 signature : EE1DDAB7 ->Track not present in AccurateRip database. Statistics Read error : 0 Jitter error (maybe fixed) : 0 Retry sector count : 0 Damaged sector count : 0
Track 08 Filename : /Users/trevormorrison/Desktop/Torrent Files/Hundred Waters - The Moon Rang Like a Bell (2014) [FLAC]/08 Down From The Rafters.flac
Track gain : -9.31 dB Peak : 0.949982 CRC32 hash (test run) : BE978331 CRC32 hash : BE978331 CRC32 hash (skip zero) : AE4D6BBE AccurateRip v1 signature : 6FEDCEF7 AccurateRip v2 signature : 9F41C7BD ->Track not present in AccurateRip database. Statistics Read error : 0 Jitter error (maybe fixed) : 0 Retry sector count : 0 Damaged sector count : 0
Track 09 Filename : /Users/trevormorrison/Desktop/Torrent Files/Hundred Waters - The Moon Rang Like a Bell (2014) [FLAC]/09 [Animal].flac
Track gain : -7.09 dB Peak : 0.972870 CRC32 hash (test run) : 1AB60B1D CRC32 hash : 1AB60B1D CRC32 hash (skip zero) : 46A49A5F AccurateRip v1 signature : D0423203 AccurateRip v2 signature : 2442399C ->Track not present in AccurateRip database. Statistics Read error : 0 Jitter error (maybe fixed) : 0 Retry sector count : 0 Damaged sector count : 0
Track 10 Filename : /Users/trevormorrison/Desktop/Torrent Files/Hundred Waters - The Moon Rang Like a Bell (2014) [FLAC]/10 Seven White Horses.flac
Track gain : -7.30 dB Peak : 0.950378 CRC32 hash (test run) : 2527875F CRC32 hash : 2527875F CRC32 hash (skip zero) : 8FDDBFA7 AccurateRip v1 signature : 9160287B AccurateRip v2 signature : 1F392B7A ->Track not present in AccurateRip database. Statistics Read error : 0 Jitter error (maybe fixed) : 0 Retry sector count : 0 Damaged sector count : 0
Track 11 Filename : /Users/trevormorrison/Desktop/Torrent Files/Hundred Waters - The Moon Rang Like a Bell (2014) [FLAC]/11 Xtalk.flac
Track gain : -7.83 dB Peak : 0.968323 CRC32 hash (test run) : FCA39908 CRC32 hash : FCA39908 CRC32 hash (skip zero) : D96114C7 AccurateRip v1 signature : D3C03A98 AccurateRip v2 signature : FE2D0650 ->Track not present in AccurateRip database. Statistics Read error : 0 Jitter error (maybe fixed) : 0 Retry sector count : 0 Damaged sector count : 0
Track 12 Filename : /Users/trevormorrison/Desktop/Torrent Files/Hundred Waters - The Moon Rang Like a Bell (2014) [FLAC]/12 No Sound.flac
Track gain : -6.38 dB Peak : 0.966827 CRC32 hash (test run) : 93AD5A68 CRC32 hash : 93AD5A68 CRC32 hash (skip zero) : 1898C027 AccurateRip v1 signature : E7D8F1A6 AccurateRip v2 signature : A2380EC5 ->Track not present in AccurateRip database. Statistics Read error : 0 Jitter error (maybe fixed) : 0 Retry sector count : 0 Damaged sector count : 0
No errors occurred
End of status report
-----BEGIN XLD SIGNATURE-----58UYaT8qM0mLdOEfUhTh0VLpopu1Vp5RXDLWbvFtdn27fbC4dVCQjEWq_0izanVfbFpBgVPf0zbtE9sSz6sus0dd36fwMk3PED61vSi-----END XLD SIGNATURE-----

Содержание индексной карты (.CUE)

TITLE "The Moon Rang Like a Bell"PERFORMER "Hundred Waters"REM GENRE "Electronica"REM DATE "2014"REM DISCNUMBER 1REM TOTALDISCS 1REM DISCID AF0B730CREM REPLAYGAIN_ALBUM_GAIN -7.90 dBREM REPLAYGAIN_ALBUM_PEAK 0.975403FILE "01 Show Me Love.flac" WAVE  TRACK 01 AUDIO    TITLE "Show Me Love"    SONGWRITER "Nicole Miglis/Paul Giese/Trayer Tryon/Zach Tetreault"    REM REPLAYGAIN_TRACK_GAIN -5.29 dB    REM REPLAYGAIN_TRACK_PEAK 0.908051    INDEX 01 00:00:00FILE "02 Murmurs.flac" WAVE  TRACK 02 AUDIO    TITLE "Murmurs"    SONGWRITER "Nicole Miglis/Paul Giese/Trayer Tryon/Zach Tetreault"    REM REPLAYGAIN_TRACK_GAIN -7.46 dB    REM REPLAYGAIN_TRACK_PEAK 0.951935    INDEX 01 00:00:00FILE "03 Cavity.flac" WAVE  TRACK 03 AUDIO    TITLE "Cavity"    SONGWRITER "Nicole Miglis/Paul Giese/Trayer Tryon/Zach Tetreault"    REM REPLAYGAIN_TRACK_GAIN -8.99 dB    REM REPLAYGAIN_TRACK_PEAK 0.953186    INDEX 01 00:00:00FILE "04 Out Alee.flac" WAVE  TRACK 04 AUDIO    TITLE "Out Alee"    SONGWRITER "Nicole Miglis/Paul Giese/Trayer Tryon/Zach Tetreault"    REM REPLAYGAIN_TRACK_GAIN -7.74 dB    REM REPLAYGAIN_TRACK_PEAK 0.961304    INDEX 01 00:00:00FILE "05 Innocent.flac" WAVE  TRACK 05 AUDIO    TITLE "Innocent"    SONGWRITER "Nicole Miglis/Paul Giese/Trayer Tryon/Zach Tetreault"    REM REPLAYGAIN_TRACK_GAIN -6.82 dB    REM REPLAYGAIN_TRACK_PEAK 0.975403    INDEX 01 00:00:00FILE "06 Broken Blue.flac" WAVE  TRACK 06 AUDIO    TITLE "Broken Blue"    SONGWRITER "Nicole Miglis/Paul Giese/Trayer Tryon/Zach Tetreault"    REM REPLAYGAIN_TRACK_GAIN -6.28 dB    REM REPLAYGAIN_TRACK_PEAK 0.945312    INDEX 01 00:00:00FILE "07 Chambers (Passing Train).flac" WAVE  TRACK 07 AUDIO    TITLE "Chambers (Passing Train)"    SONGWRITER "Nicole Miglis/Paul Giese/Trayer Tryon/Zach Tetreault"    REM REPLAYGAIN_TRACK_GAIN -3.81 dB    REM REPLAYGAIN_TRACK_PEAK 0.923004    INDEX 01 00:00:00FILE "08 Down From The Rafters.flac" WAVE  TRACK 08 AUDIO    TITLE "Down From The Rafters"    SONGWRITER "Nicole Miglis/Paul Giese/Trayer Tryon/Zach Tetreault"    REM REPLAYGAIN_TRACK_GAIN -9.31 dB    REM REPLAYGAIN_TRACK_PEAK 0.949982    INDEX 01 00:00:00FILE "09 [Animal].flac" WAVE  TRACK 09 AUDIO    TITLE "[Animal]"    SONGWRITER "Nicole Miglis/Paul Giese/Trayer Tryon/Zach Tetreault"    REM REPLAYGAIN_TRACK_GAIN -7.09 dB    REM REPLAYGAIN_TRACK_PEAK 0.972870    INDEX 01 00:00:00FILE "10 Seven White Horses.flac" WAVE  TRACK 10 AUDIO    TITLE "Seven White Horses"    SONGWRITER "Nicole Miglis/Paul Giese/Trayer Tryon/Zach Tetreault"    REM REPLAYGAIN_TRACK_GAIN -7.30 dB    REM REPLAYGAIN_TRACK_PEAK 0.950378    INDEX 01 00:00:00FILE "11 Xtalk.flac" WAVE  TRACK 11 AUDIO    TITLE "Xtalk"    SONGWRITER "Nicole Miglis/Paul Giese/Trayer Tryon/Zach Tetreault"    REM REPLAYGAIN_TRACK_GAIN -7.83 dB    REM REPLAYGAIN_TRACK_PEAK 0.968323    INDEX 01 00:00:00FILE "12 No Sound.flac" WAVE  TRACK 12 AUDIO    TITLE "No Sound"    SONGWRITER "Nicole Miglis/Paul Giese/Trayer Tryon/Zach Tetreault"    REM REPLAYGAIN_TRACK_GAIN -6.38 dB    REM REPLAYGAIN_TRACK_PEAK 0.966827    INDEX 01 00:00:00

Об альбоме (сборнике)

очень сильный и совершенно неповторимый альбом, так же рекомендую ремикс-альбом на него. много лучше чем в альбоме саранжеровано
Вы не можете начинать темы
Вы не можете отвечать на сообщения
Вы не можете редактировать свои сообщения
Вы не можете удалять свои сообщения
Вы не можете голосовать в опросах
Вы не можете прикреплять файлы к сообщениям
Вы можете скачивать файлы