Chapter 75: I hung on | Die Garde der Löwen | Facebook

(Classical opera) Cavalli - La Didone / Кавалли - Дидона [2CD\'s] (Yvonne Kenny, Hilary Summers / Balthasar-Neumann-Chor & Ensemble, Thomas Hengelbrock) - 1998, FLAC (image+.cue) lossless 

Цитировать
Cavalli: La Didone - Yvonne Kenny, Hilary Summers / Balthasar-Neumann-Chor & Ensemble, Thomas Hengelbrock
Жанр: Classical opera
Страна-производитель диска: Made in the EU
Год издания диска: 1998
Издатель (лейбл): deutsche harmonia mundi / BMG Entertainment
Номер по каталогу: 05472 77354 2
Аудиокодек: FLAC
Тип рипа: image+.cue
Битрейт аудио: lossless
Продолжительность: 74:04 + 68:20 / 02:22:20
Источник: релизер
сайт-источник/ник/другое: Bodtje, подарок; Horatio from classicallibrary - полный буклет jpeg; Caterina Sforza - упоительная работа с cue
Наличие сканов в содержимом раздачи: да, два полных буклета, 121 страница (jpeg и pdf)

Треклист

CD1

1. Prologue2. Act One, Scene One3. Scene Two4. Scene Three5. Scene Four6. Scene Five7. Scene Six8. Scene Seven9. Scene Eight10. Scene Nine
11. Act Two, Scene One12. Scene Two13. Scene Three14. Scene Four15. Scene Five16. Scene Six17. Scene Seven

CD2

1. Act Two, Scene Eight2. Scene Nine3. Scene Ten4. Scene Eleven5. Scene Twelve6. Scene Thirteen
7. Act Three, Scene One8. Scene Two9. Scene Three10. Scene Four11. Scene Five12. Scene Six13. Scene Seven14. Scene Eight15. Scene Nine16. Scene Ten17. Sinfonia

Исполнители

Pietro Francesco Cavalli (1602-1676)
La DidoneOpera in a Prologue and Three actsLibretto: Giovanni Francesco Busenello
Cassandra / Didone Yvonne KennyEnea / Laurence DaleCreusa / Giunone Judith HowarthAscanio / Amore Uta SchwabePirro / Ombra di Sicheo Hermann OswaldCorebo / Eolo Hans Jörg MammelVenere / Prima Damigella Wessela ZlatevaAnchise / Un Vecchio Peter-Jürgen SchmidtEcuba / Hilary SummersSinori / Nettuno Kwangchul YounIarba / Alexander PlustFortuna / Seconda Damigella / Leonore von FalkenshausenAnna / Terza Damigella / Katharina KammerhoferMercurio / Bernhard Landauer
Balthasar-Neumann-Chor & EnsembleConductor: Thomas Hengelbrock
Audio CD (September 14, 1998)

Лог создания рипа

CD1

Exact Audio Copy V1.3 from 2. September 2016
EAC extraction logfile from 25. June 2018, 7:58
Francesco Cavalli / Cayalli: La Didone
Used drive : TSSTcorpDVDWBD SE-406AB Adapter: 1 ID: 2
Read mode : SecureUtilize accurate stream : YesDefeat audio cache : YesMake use of C2 pointers : No
Read offset correction : 6Overread into Lead-In and Lead-Out : NoFill up missing offset samples with silence : YesDelete leading and trailing silent blocks : NoNull samples used in CRC calculations : YesUsed interface : Native Win32 interface for Win NT & 2000
Used output format : User Defined EncoderSelected bitrate : 1024 kBit/sQuality : HighAdd ID3 tag : NoCommand line compressor : C:\Program Files (x86)\Exact Audio Copy\FLAC\FLAC.EXEAdditional command line options : -8 -e -p -V -T "ARTIST=%artist%" -T "TITLE=%title%" -T "ALBUM=%albumtitle%" -T "DATE=%year%" -T "TRACKNUMBER=%tracknr%" -T "GENRE=%genre%" -T "PERFORMER=%albuminterpret%" -T "COMPOSER=%composer%" %haslyrics%--tag-from-file=LYRICS="%lyricsfile%"%haslyrics% -T "ALBUMARTIST=%albumartist%" -T "DISCNUMBER=%cdnumber%" -T "TOTALDISCS=%totalcds%" -T "TOTALTRACKS=%numtracks%" -T "COMMENT=%comment%" %source% -o %dest%
TOC of the extracted CD
Track | Start | Length | Start sector | End sector --------------------------------------------------------- 1 | 0:00.00 | 2:54.56 | 0 | 13105 2 | 2:54.56 | 2:14.03 | 13106 | 23158 3 | 5:08.59 | 7:17.66 | 23159 | 55999 4 | 12:26.50 | 7:01.44 | 56000 | 87618 5 | 19:28.19 | 2:57.18 | 87619 | 100911 6 | 22:25.37 | 3:09.61 | 100912 | 115147 7 | 25:35.23 | 4:30.71 | 115148 | 135468 8 | 30:06.19 | 8:10.51 | 135469 | 172269 9 | 38:16.70 | 3:20.66 | 172270 | 187335 10 | 41:37.61 | 4:46.37 | 187336 | 208822 11 | 46:24.23 | 4:16.67 | 208823 | 228089 12 | 50:41.15 | 3:59.35 | 228090 | 246049 13 | 54:40.50 | 2:19.29 | 246050 | 256503 14 | 57:00.04 | 3:23.45 | 256504 | 271773 15 | 60:23.49 | 4:03.25 | 271774 | 290023 16 | 64:26.74 | 3:39.51 | 290024 | 306499 17 | 68:06.50 | 3:05.14 | 306500 | 320388 18 | 71:11.64 | 2:50.68 | 320389 | 333206
Range status and errors
Selected range
Filename K:\Rips\Cavalli - La Didone - Hengelbrock\CD1\Francesco Cavalli - Cayalli- La Didone (Disc1).wav
Peak level 100.0 % Extraction speed 2.2 X Range quality 100.0 % Test CRC BF945287 Copy CRC BF945287 Copy OK
No errors occurred
AccurateRip summary
Track 1 accurately ripped (confidence 13) [A035770C] (AR v2)Track 2 accurately ripped (confidence 13) [48588789] (AR v2)Track 3 accurately ripped (confidence 13) [12DA3860] (AR v2)Track 4 accurately ripped (confidence 13) [0A910A1A] (AR v2)Track 5 accurately ripped (confidence 13) [0821B96D] (AR v2)Track 6 accurately ripped (confidence 13) [816368CB] (AR v2)Track 7 accurately ripped (confidence 13) [13A63235] (AR v2)Track 8 accurately ripped (confidence 13) [399F620F] (AR v2)Track 9 accurately ripped (confidence 13) [44989067] (AR v2)Track 10 accurately ripped (confidence 13) [88CDC669] (AR v2)Track 11 accurately ripped (confidence 13) [AB9D6402] (AR v2)Track 12 accurately ripped (confidence 13) [AA73B40D] (AR v2)Track 13 accurately ripped (confidence 13) [33D52F68] (AR v2)Track 14 accurately ripped (confidence 13) [194A65C6] (AR v2)Track 15 accurately ripped (confidence 13) [88285F94] (AR v2)Track 16 accurately ripped (confidence 13) [FEEF352F] (AR v2)Track 17 accurately ripped (confidence 13) [69755D22] (AR v2)Track 18 accurately ripped (confidence 12) [46654C77] (AR v2)
All tracks accurately ripped
End of status report
---- CUETools DB Plugin V2.1.6
[CTDB TOCID: GTT7SeH.sDLYtYSCharZkwGHl2Q-] foundSubmit result: GTT7SeH.sDLYtYSCharZkwGHl2Q- has been confirmedTrack | CTDB Status 1 | (7/7) Accurately ripped 2 | (7/7) Accurately ripped 3 | (7/7) Accurately ripped 4 | (7/7) Accurately ripped 5 | (7/7) Accurately ripped 6 | (7/7) Accurately ripped 7 | (7/7) Accurately ripped 8 | (7/7) Accurately ripped 9 | (7/7) Accurately ripped 10 | (7/7) Accurately ripped 11 | (7/7) Accurately ripped 12 | (7/7) Accurately ripped 13 | (7/7) Accurately ripped 14 | (7/7) Accurately ripped 15 | (7/7) Accurately ripped 16 | (7/7) Accurately ripped 17 | (7/7) Accurately ripped 18 | (7/7) Accurately ripped
==== Log checksum 4ACD7A9E02E2EB781322A8E97746822FEF3923EE2CD219BD424E490A65E0BB73 ====

CD2

Exact Audio Copy V1.3 from 2. September 2016
EAC extraction logfile from 25. June 2018, 9:54
Pietro Francesco Cavalli / La Didone
Used drive : TSSTcorpDVDWBD SE-406AB Adapter: 1 ID: 2
Read mode : SecureUtilize accurate stream : YesDefeat audio cache : YesMake use of C2 pointers : No
Read offset correction : 6Overread into Lead-In and Lead-Out : NoFill up missing offset samples with silence : YesDelete leading and trailing silent blocks : NoNull samples used in CRC calculations : YesUsed interface : Native Win32 interface for Win NT & 2000
Used output format : User Defined EncoderSelected bitrate : 1024 kBit/sQuality : HighAdd ID3 tag : NoCommand line compressor : C:\Program Files (x86)\Exact Audio Copy\FLAC\FLAC.EXEAdditional command line options : -8 -e -p -V -T "ARTIST=%artist%" -T "TITLE=%title%" -T "ALBUM=%albumtitle%" -T "DATE=%year%" -T "TRACKNUMBER=%tracknr%" -T "GENRE=%genre%" -T "PERFORMER=%albuminterpret%" -T "COMPOSER=%composer%" %haslyrics%--tag-from-file=LYRICS="%lyricsfile%"%haslyrics% -T "ALBUMARTIST=%albumartist%" -T "DISCNUMBER=%cdnumber%" -T "TOTALDISCS=%totalcds%" -T "TOTALTRACKS=%numtracks%" -T "COMMENT=%comment%" %source% -o %dest%
TOC of the extracted CD
Track | Start | Length | Start sector | End sector --------------------------------------------------------- 1 | 0:00.00 | 2:33.32 | 0 | 11506 2 | 2:33.32 | 1:56.67 | 11507 | 20273 3 | 4:30.24 | 3:36.19 | 20274 | 36492 4 | 8:06.43 | 3:29.42 | 36493 | 52209 5 | 11:36.10 | 2:13.46 | 52210 | 62230 6 | 13:49.56 | 2:56.26 | 62231 | 75456 7 | 16:46.07 | 5:50.65 | 75457 | 101771 8 | 22:36.72 | 4:23.65 | 101772 | 121561 9 | 27:00.62 | 4:06.61 | 121562 | 140072 10 | 31:07.48 | 4:38.41 | 140073 | 160963 11 | 35:46.14 | 6:26.40 | 160964 | 189953 12 | 42:12.54 | 10:00.04 | 189954 | 234957 13 | 52:12.58 | 2:47.19 | 234958 | 247501 14 | 55:00.02 | 1:18.50 | 247502 | 253401 15 | 56:18.52 | 5:07.39 | 253402 | 276465 16 | 61:26.16 | 4:37.20 | 276466 | 297260 17 | 66:03.36 | 2:14.62 | 297261 | 307372
Range status and errors
Selected range
Filename K:\Rips\Cavalli - La Didone - Hengelbrock\CD2\Pietro Francesco Cavalli - La Didone (Disc2).wav
Peak level 89.7 % Extraction speed 2.2 X Range quality 100.0 % Test CRC 6DB10F3A Copy CRC 6DB10F3A Copy OK
No errors occurred
AccurateRip summary
Track 1 accurately ripped (confidence 12) [DBACADF3] (AR v2)Track 2 accurately ripped (confidence 12) [F47AE3D2] (AR v2)Track 3 accurately ripped (confidence 12) [BB0BE14D] (AR v2)Track 4 accurately ripped (confidence 12) [E948DFD8] (AR v2)Track 5 accurately ripped (confidence 12) [6B7D8884] (AR v2)Track 6 accurately ripped (confidence 12) [28300EC8] (AR v2)Track 7 accurately ripped (confidence 12) [40BD574F] (AR v2)Track 8 accurately ripped (confidence 12) [B191F768] (AR v2)Track 9 accurately ripped (confidence 12) [BF2FB3A1] (AR v2)Track 10 accurately ripped (confidence 12) [02855FEA] (AR v2)Track 11 accurately ripped (confidence 12) [B8D3064B] (AR v2)Track 12 accurately ripped (confidence 12) [599C67F1] (AR v2)Track 13 accurately ripped (confidence 12) [63BFFB32] (AR v2)Track 14 accurately ripped (confidence 12) [5D43868F] (AR v2)Track 15 accurately ripped (confidence 12) [63A9A4CE] (AR v2)Track 16 accurately ripped (confidence 12) [A6788702] (AR v2)Track 17 accurately ripped (confidence 12) [E6A8E965] (AR v2)
All tracks accurately ripped
End of status report
---- CUETools DB Plugin V2.1.6
[CTDB TOCID: 0qkwqKItc6cF71z1B2ZVauZnOus-] foundSubmit result: 0qkwqKItc6cF71z1B2ZVauZnOus- has been confirmedTrack | CTDB Status 1 | (7/7) Accurately ripped 2 | (7/7) Accurately ripped 3 | (7/7) Accurately ripped 4 | (7/7) Accurately ripped 5 | (7/7) Accurately ripped 6 | (7/7) Accurately ripped 7 | (7/7) Accurately ripped 8 | (7/7) Accurately ripped 9 | (7/7) Accurately ripped 10 | (7/7) Accurately ripped 11 | (7/7) Accurately ripped 12 | (7/7) Accurately ripped 13 | (7/7) Accurately ripped 14 | (7/7) Accurately ripped 15 | (7/7) Accurately ripped 16 | (7/7) Accurately ripped 17 | (7/7) Accurately ripped
==== Log checksum AED7912E74A0C59A709BAD493BD6D0D330250F223AB5D05569FE9A96268CA8D4 ====

Содержание индексной карты (.CUE)

CD1

REM GENRE ClassicalREM DATE 2000REM DISCID 16115A12REM COMMENT "ExactAudioCopy v1.3"PERFORMER "Balthasar-Neumann Ensemble, Thomas Hengelbrock (direttore) / Yvonne Kenny - Didone/Cassandra (soprano), Laurence Dale - Enea (tenore), Judith Howarth - Creusa/Giunone (soprano), Uta Schwabe - Ascanio/Amore (mezzosoprano), Hermann Oswald - Pirro/Ombra di Sicheo (tenore), Hans Jörg Mammel - Corebo/Eolo (tenore), Wessela Zlateva - Venere/Prima Damigella (soprano), Peter-Jürgen Schmidt - Anchise/Un Vecchio (tenore), Hilary Summers - Ecuba (contralto), Kwangchul Youn - Sinon/Nettuno (basso), Alexander Plust - Iarba (controtenore), Leonore von Falkenhausen - Fortuna/Seconda Damigella (soprano), Katharina Kammerloher - Anna/Terza Damigella (mezzosoprano), Bernhard Landauer - Mercurio (controtenore)"TITLE "Cavalli: La Didone (Disc 1)"REM COMPOSER "Francesco Cavalli (1602-1676)"FILE "Francesco Cavalli - La Didone (Disc 1) - Thomas Hengelbrock.flac" WAVE  TRACK 01 AUDIO    TITLE "La Didone, Opera in a prologue and three acts. Libretto by Giovanni Francesco Busenello. Venezia 1641. Prologue. “Caduta è Troia, e nelle sue ruine” (Fortuna)"    PERFORMER "Balthasar-Neumann Ensemble, Thomas Hengelbrock & Leonore von Falkenhausen"    REM COMPOSER "Francesco Cavalli"    INDEX 01 00:00:00  TRACK 02 AUDIO    TITLE "Sinfonia"    PERFORMER "Balthasar-Neumann Ensemble, Thomas Hengelbrock"    REM COMPOSER "Francesco Cavalli"    INDEX 01 02:54:56  TRACK 03 AUDIO    TITLE "ATTO PRIMO. Scena Prima. “Enea, non è più tempo” (Creusa, Enea, Ascanio)"    PERFORMER "Balthasar-Neumann Ensemble, Thomas Hengelbrock & Judith Howarth, Laurence Dale, Uta Schwabe"    REM COMPOSER "Francesco Cavalli"    INDEX 01 05:08:59  TRACK 04 AUDIO    TITLE "Scena Seconda. “Non perdonate al tempio?” (Cassandra, Pirro, Corebo)"    PERFORMER "Balthasar-Neumann Ensemble, Thomas Hengelbrock & Yvonne Kenny, Hermann Oswald, Hans Jörg Mammel"    REM COMPOSER "Francesco Cavalli"    INDEX 01 12:26:50  TRACK 05 AUDIO    TITLE "Scena Terza. “L'alma fiacca svani” (Cassandra)"    PERFORMER "Balthasar-Neumann Ensemble, Thomas Hengelbrock & Yvonne Kenny"    REM COMPOSER "Francesco Cavalli"    INDEX 01 19:28:19  TRACK 06 AUDIO    TITLE "Scena Quarta. “Homai pon freno all impeto dell'ira” (Venere, Enea)"    PERFORMER "Balthasar-Neumann Ensemble, Thomas Hengelbrock & Wessela Zlateva, Laurence Dale"    REM COMPOSER "Francesco Cavalli"    INDEX 01 22:25:37  TRACK 07 AUDIO    TITLE "Scena Quinta. “Andianne, o genitor, figlio, consorte” (Enea, Anchise, Ascanio, Creusa)"    PERFORMER "Balthasar-Neumann Ensemble, Thomas Hengelbrock & Laurence Dale, Peter-Jürgen Schmidt, Uta Schwabe, Judith Howarth"    REM COMPOSER "Francesco Cavalli"    INDEX 01 25:35:23  TRACK 08 AUDIO    TITLE "Scena Sesta. “Alle ruine del mio regno adunque” (Ecuba, Cassandra)"    PERFORMER "Balthasar-Neumann Ensemble, Thomas Hengelbrock & Hilary Summers, Yvonne Kenny"    REM COMPOSER "Francesco Cavalli"    INDEX 01 30:06:19  TRACK 09 AUDIO    TITLE "Scena Settima. “O con qual gusto” (Sinon)"    PERFORMER "Balthasar-Neumann Ensemble, Thomas Hengelbrock & Kwangchul Youn"    REM COMPOSER "Francesco Cavalli"    INDEX 01 38:16:70  TRACK 10 AUDIO    TITLE "Scena Ottava. “Deh chi m'insegna homai, deh chi m'addita” (Enea, Ombra di Creusa)"    PERFORMER "Balthasar-Neumann Ensemble, Thomas Hengelbrock & Laurence Dale, Hermann Oswald"    REM COMPOSER "Francesco Cavalli"    INDEX 01 41:37:61  TRACK 11 AUDIO    TITLE "Scena Nona. “Diva, anzi più che Diva” (Venere, Fortuna)"    PERFORMER "Balthasar-Neumann Ensemble, Thomas Hengelbrock & Wessela Zlateva, Leonore von Falkenhausen"    REM COMPOSER "Francesco Cavalli"    INDEX 01 46:24:23  TRACK 12 AUDIO    TITLE "ATTO SECONDO. Scena Prima. “Le ceneri Troiane” (Giunone, Eolo)"    PERFORMER "Balthasar-Neumann Ensemble, Thomas Hengelbrock & Judith Howarth, Hans Jörg Mammel"    REM COMPOSER "Francesco Cavalli"    INDEX 01 50:41:15  TRACK 13 AUDIO    TITLE "Scena Seconda. “Smoderati insolenti” (Nettuno)"    PERFORMER "Balthasar-Neumann Ensemble, Thomas Hengelbrock & Kwangchul Youn"    REM COMPOSER "Francesco Cavalli"    INDEX 01 54:40:50  TRACK 14 AUDIO    TITLE "Scena Terza. “Per eccesso d'affetto” (Iarba)"    PERFORMER "Balthasar-Neumann Ensemble, Thomas Hengelbrock & Alexander Plust"    REM COMPOSER "Francesco Cavalli"    INDEX 01 57:00:04  TRACK 15 AUDIO    TITLE "Scena Quarta. “Rè de Getuli altero” (Didone, Iarba)"    PERFORMER "Balthasar-Neumann Ensemble, Thomas Hengelbrock & Yvonne Kenny, Alexander Plust"    REM COMPOSER "Francesco Cavalli"    INDEX 01 60:23:49  TRACK 16 AUDIO    TITLE "Scena Quinta. “Sta mane, mentre l'alba” (Didone, Anna)"    PERFORMER "Balthasar-Neumann Ensemble, Thomas Hengelbrock & Yvonne Kenny, Katharina Kammerloher"    REM COMPOSER "Francesco Cavalli"    INDEX 01 64:26:74  TRACK 17 AUDIO    TITLE "Scena Sesta. “Già del lido Africano” (Venere, Amore)"    PERFORMER "Balthasar-Neumann Ensemble, Thomas Hengelbrock & Wessela Zlateva, Uta Schwabe"    REM COMPOSER "Francesco Cavalli"    INDEX 01 68:06:50  TRACK 18 AUDIO    TITLE "Scena Settima. “Non fù natural vento al creder mio” (Enea)"    PERFORMER "Balthasar-Neumann Ensemble, Thomas Hengelbrock & Laurence Dale"    REM COMPOSER "Francesco Cavalli"    INDEX 01 71:11:64

CD2

REM GENRE ClassicalREM DATE 1998REM DISCID FA100211REM COMMENT "ExactAudioCopy v1.3"PERFORMER "Balthasar-Neumann Ensemble, Thomas Hengelbrock (direttore) / Yvonne Kenny - Didone/Cassandra (soprano), Laurence Dale - Enea (tenore), Judith Howarth - Creusa/Giunone (soprano), Uta Schwabe - Ascanio/Amore (mezzosoprano), Hermann Oswald - Pirro/Ombra di Sicheo (tenore), Hans Jörg Mammel - Corebo/Eolo (tenore), Wessela Zlateva - Venere/Prima Damigella (soprano), Peter-Jürgen Schmidt - Anchise/Un Vecchio (tenore), Hilary Summers - Ecuba (contralto), Kwangchul Youn - Sinon/Nettuno (basso), Alexander Plust - Iarba (controtenore), Leonore von Falkenhausen - Fortuna/Seconda Damigella (soprano), Katharina Kammerloher - Anna/Terza Damigella (mezzosoprano), Bernhard Landauer - Mercurio (controtenore)"TITLE "Cavalli: La Didone (Disc 2)"REM COMPOSER "Francesco Cavalli (1602-1676)"FILE "Francesco Cavalli - La Didone (Disc 2) - Thomas Hengelbrock.flac" WAVE  TRACK 01 AUDIO    TITLE "ATTO SECONDO. Scena Ottava. “L'amor materno vuol, ch'io mi diropra” (Venere, Eneo, Acate)"    PERFORMER "Balthasar-Neumann Ensemble, Thomas Hengelbrock & "    REM COMPOSER "Francesco Cavalli"    INDEX 01 00:00:00  TRACK 02 AUDIO    TITLE "Scena Nona. “Piovan le sfere” (Amore, Didone)"    PERFORMER "Balthasar-Neumann Ensemble, Thomas Hengelbrock & Uta Schwabe, Yvonne Kenny"    REM COMPOSER "Francesco Cavalli"    INDEX 01 02:33:32  TRACK 03 AUDIO    TITLE "Scena Decima. “Bellissima Regina” (Enea, Didone)"    PERFORMER "Balthasar-Neumann Ensemble, Thomas Hengelbrock & Laurence Dale, Yvonne Kenny"    REM COMPOSER "Francesco Cavalli"    INDEX 01 04:30:24  TRACK 04 AUDIO    TITLE "Scena Undecima. “Udiste, o mie dilette” (Tre damigelle di corte)"    PERFORMER "Balthasar-Neumann Ensemble, Thomas Hengelbrock & Wessela Zlateva, Leonore von Falkenhausen, Katharina Kammerloher"    REM COMPOSER "Francesco Cavalli"    INDEX 01 08:06:43  TRACK 05 AUDIO    TITLE "Scena Duodecima. “O castità bugiarda” (Iarba)"    PERFORMER "Balthasar-Neumann Ensemble, Thomas Hengelbrock & Alexander Plust"    REM COMPOSER "Francesco Cavalli"    INDEX 01 11:36:10  TRACK 06 AUDIO    TITLE "Scena Decimaterza. “O bella oltre ogni stima” (Iarba, un vecchio)"    PERFORMER "Balthasar-Neumann Ensemble, Thomas Hengelbrock & Alexander Plust, Peter-Jürgen Schmidt"    REM COMPOSER "Francesco Cavalli"    INDEX 01 13:49:56  TRACK 07 AUDIO    TITLE "ATTO TERZO. Scena Prima. “Qual violena interna” (Didone, Anna)"    PERFORMER "Balthasar-Neumann Ensemble, Thomas Hengelbrock & Yvonne Kenny, Katharina Kammerloher"    REM COMPOSER "Francesco Cavalli"    INDEX 01 16:46:07  TRACK 08 AUDIO    TITLE "Scena Seconda. “Pur t'hò colta, assassina” (Iarba, due domigelle)"    PERFORMER "Balthasar-Neumann Ensemble, Thomas Hengelbrock & Alexander Plust, Wessela Zlateva, Leonore von Falkenhausen"    REM COMPOSER "Francesco Cavalli"    INDEX 01 22:36:72  TRACK 09 AUDIO    TITLE "Scena Terza. “Al cinghial', al cinghial', al cinghiale!” (“La caccia”. Choro di caccistori)"    PERFORMER "Balthasar-Neumann Ensemble, Thomas Hengelbrock & Yvonne Kenny, Laurence Dale, Judith Howarth, Uta Schwabe, Hermann Oswald, Hans Jörg Mammel, Wessela Zlateva, Peter-Jürgen Schmidt, Hilary Summers, Kwangchul Youn, Alexander Plust, Leonore von Falkenhausen, Katharina Kammerloher, Bernhard Landauer"    REM COMPOSER "Francesco Cavalli"    INDEX 01 27:00:62  TRACK 10 AUDIO    TITLE "Scena Quarta. “Enea, che fai, che pensi? Enea, tu dormi?” (Mercurio, Enea)"    PERFORMER "Balthasar-Neumann Ensemble, Thomas Hengelbrock & Bernhard Landauer, Laurence Dale"    REM COMPOSER "Francesco Cavalli"    INDEX 01 31:07:48  TRACK 11 AUDIO    TITLE "Scena Quinta. “Ohimè, qual vision l'alma m'abbaglia?” (Enea)"    PERFORMER "Balthasar-Neumann Ensemble, Thomas Hengelbrock & Laurence Dale"    REM COMPOSER "Francesco Cavalli"    INDEX 01 35:46:14  TRACK 12 AUDIO    TITLE "Scena Sesta. “Perfido, disleale” (Didone, Enea)"    PERFORMER "Balthasar-Neumann Ensemble, Thomas Hengelbrock & Yvonne Kenny, Laurence Dale"    REM COMPOSER "Francesco Cavalli"    INDEX 01 42:12:54  TRACK 13 AUDIO    TITLE "Scena Settima. “Queste sono l'essenquie, e le memorie” (Sicheo)"    PERFORMER "Balthasar-Neumann Ensemble, Thomas Hengelbrock & Hermann Oswald"    REM COMPOSER "Francesco Cavalli"    INDEX 01 52:12:58  TRACK 14 AUDIO    TITLE "Scena Ottava. “Enea rivolto ha 'l piede” (Tre damigelle di corte)"    PERFORMER "Balthasar-Neumann Ensemble, Thomas Hengelbrock & Wessela Zlateva, Leonore von Falkenhausen, Katharina Kammerloher"    REM COMPOSER "Francesco Cavalli"    INDEX 01 55:00:02  TRACK 15 AUDIO    TITLE "Scena Nona. “O che vita consolata” (Iorba, Mercurio)"    PERFORMER "Balthasar-Neumann Ensemble, Thomas Hengelbrock & Alexander Plust, Bernhard Landauer"    REM COMPOSER "Francesco Cavalli"    INDEX 01 56:18:52  TRACK 16 AUDIO    TITLE "Scena Decima. “Porgetemi la spada” (Didone)"    PERFORMER "Balthasar-Neumann Ensemble, Thomas Hengelbrock & Yvonne Kenny"    REM COMPOSER "Francesco Cavalli"    INDEX 01 61:26:16  TRACK 17 AUDIO    TITLE "Sinfonia"    PERFORMER "Balthasar-Neumann Ensemble, Thomas Hengelbrock"    REM COMPOSER "Francesco Cavalli"    INDEX 01 66:03:36
Вы не можете начинать темы
Вы не можете отвечать на сообщения
Вы не можете редактировать свои сообщения
Вы не можете удалять свои сообщения
Вы не можете голосовать в опросах
Вы не можете прикреплять файлы к сообщениям
Вы можете скачивать файлы