Gotti 2018 Türkçe Altyazılı izle | Red Leaf Film Basics Lightroom Presets | Battle Angel (OAV)

П.Чайковский - Пиковая дама (В.Галузин - Т.Бородина - Н.Путилин - Е.Губанова - В.Мороз / В.Гергиев) / Tchaikovsky - Pique Dame / Mariinsky [2007,Opera,HDTV,1080i] 

Цитировать
П.Чайковский - Пиковая дама (В.Галузин - Т.Бородина - Н.Путилин - Е.Губанова - В.Мороз / В.Гергиев) / Tchaikovsky - Pique Dame / Mariinsky
Год выпуска: 2007
Жанр: Опера
Продолжительность: 2:41:52
Язык: Русский
Субтитры: Французские неотключаемые
Исполнители:
Герман - Владимир Галузин
Граф Томский - Николай Путилин
Князь Елецкий - Владимир Мороз
Чекалинский - Олег Балашов
Сурин - Михаил Петренко
Чаплицкий / Распорядитель - Николай Гасиев
Нарумов - Геннадий Беззубенков
Графиня - Ирина Богачева
Лиза - Татьяна Бородина
Полина - Екатерина Губанова
Маша - Светлана Волкова
Гувернантка - Ольга Маркова-Михайленко
Прилепа - Ольга Трифонова
Хор, оркестр и балет Мариинского театра
Дирижер - Валерий Гергиев
Режиссeр - Александр Галибин (постановка 1999 года)
Описание:
Спектакль Мариинского театра сезона 2006 года. Пожалуй, лучшая запись с Владимиром Галузиным в его коронной партии.
Качество видео: HDTV
Формат/Контейнер: TS
Видео кодек: H.264
Аудио кодек: MPEG2
Видео поток: 1920x1080 H.264 25 fps ~10 mbps - исходное видео со спутника без перекодировки
Аудио поток: MPEG2 256 kBit

Скриншоты

MediaInfo

General
ID : 16 (0x10)
Complete name : Dame_Mariinsky_2007.ts
Format : MPEG-TS
File size : 11.7 GiB
Duration : 2 h 41 min
Overall bit rate mode : Variable
Overall bit rate : 10.3 Mb/s
Video
ID : 4113 (0x1011)
Menu ID : 1 (0x1)
Format : AVC
Format/Info : Advanced Video Codec
Format profile : [email protected]
Format settings : CABAC / 3 Ref Frames
Format settings, CABAC : Yes
Format settings, RefFrames : 3 frames
Codec ID : 27
Duration : 2 h 41 min
Bit rate mode : Variable
Bit rate : 9 569 kb/s
Maximum bit rate : 40.0 Mb/s
Width : 1 920 pixels
Height : 1 080 pixels
Display aspect ratio : 16:9
Frame rate : 25.000 FPS
Standard : Component
Color space : YUV
Chroma subsampling : 4:2:0
Bit depth : 8 bits
Scan type : Interlaced
Scan type, store method : Separated fields
Scan order : Top Field First
Bits/(Pixel*Frame) : 0.185
Stream size : 10.8 GiB (93%)
Color range : Limited
Color primaries : BT.709
Transfer characteristics : BT.709
Matrix coefficients : BT.709
Audio
ID : 4352 (0x1100)
Menu ID : 1 (0x1)
Format : MPEG Audio
Format version : Version 1
Format profile : Layer 2
Codec ID : 4
Duration : 2 h 41 min
Bit rate mode : Constant
Bit rate : 256 kb/s
Channel(s) : 2 channels
Sampling rate : 48.0 kHz
Frame rate : 41.667 FPS (1152 SPF)
Compression mode : Lossy
Delay relative to video : 1 ms
Stream size : 296 MiB (2%)
Вы не можете начинать темы
Вы не можете отвечать на сообщения
Вы не можете редактировать свои сообщения
Вы не можете удалять свои сообщения
Вы не можете голосовать в опросах
Вы не можете прикреплять файлы к сообщениям
Вы можете скачивать файлы